Лапочка 3 / Honey 3: Dare to Dance (Билле Вудрафф / Bille Woodruff) [2016, США, драмаа, семейный, музыка, HDRip] Dub

Reply to topic
 
Author
Message

Satyr ®

Gender: Unknown

Longevity: 11 years

Posts: 15401

Reputation: 55 [+] [-]

Satyr · Post 11-Sep-2016 01:21

[Quote] 

Лапочка 3 / Honey 3: Dare to Dance
Страна: США
Жанр: семейный
Год выпуска: 2016
Продолжительность: 01:36:16
Перевод: Профессиональный (дублированный) [CEE]
Cубтитры: нет
Оригинальная аудиодорожка: нет-Режиссер: Билле Вудрафф / Bille Woodruff-В ролях: Кэсси, Кенни Вормолд, Бобби Локвуд, Дена Каплан, Sibongile Mlambo, Сивуйеле Нгеси, Samantha Willoughby, Питер Батлер, Эдриан Голли, Клэйтон Эвертсон-Описание: В учебное время в колледже Кейптауна, Мили Мартин решает развеяться, чтобы отвлечься от строгой школьной политики. В поисках того, как использовать свой талант танцовщицы, при этом вдохновив окружающих, Мили арендует закрывшийся театр, чтобы показать "Ромео и Джульетту" в хип-хоп стиле. Но так же, как это было между Капулетти и Монтекками, конфликты между актерами угрожают всей постановке...- -Качество видео: HDRip
Формат видео: AVI
Видео: 720x400 (1.80:1), 23.976 fps, XviD build 73 ~1724 kbps avg, 0.25 bit/pixel
Аудио: 48 kHz, AC3 Dolby Digital, 3/2 (L,C,R,l,r) + LFE ch, ~448 kbps- -

MediaInfo

Format                      : AVI
Format/Info                 : Audio Video Interleave
File size                   : 1.47 GiB
Duration                    : 1 h 36 min
Overall bit rate            : 2 182 kb/s
Writing application         : VirtualDubMod 1.5.10.3 | www.virtualdub-fr.org || (build 2550/release)
Writing library             : VirtualDubMod build 2550/release
Video
ID                          : 0
Format                      : MPEG-4 Visual
Format profile              : Advanced Simple@L5
Format settings, BVOP       : 1
Format settings, QPel       : No
Format settings, GMC        : No warppoints
Format settings, Matrix     : Custom
Codec ID                    : XVID
Codec ID/Hint               : XviD
Duration                    : 1 h 36 min
Bit rate                    : 1 725 kb/s
Width                       : 720 pixels
Height                      : 400 pixels
Display aspect ratio        : 16:9
Frame rate                  : 23.976 (23976/1000) FPS
Color space                 : YUV
Chroma subsampling          : 4:2:0
Bit depth                   : 8 bits
Scan type                   : Progressive
Compression mode            : Lossy
Bits/(Pixel*Frame)          : 0.250
Stream size                 : 1.16 GiB (79%)
Writing library             : XviD 73
Audio
ID                          : 1
Format                      : AC-3
Format/Info                 : Audio Coding 3
Mode extension              : CM (complete main)
Format settings, Endianness : Big
Codec ID                    : 2000
Duration                    : 1 h 36 min
Bit rate mode               : Constant
Bit rate                    : 448 kb/s
Channel(s)                  : 6 channels
Channel positions           : Front: L C R, Side: L R, LFE
Sampling rate               : 48.0 kHz
Frame rate                  : 31.250 FPS (1536 spf)
Compression mode            : Lossy
Stream size                 : 309 MiB (21%)
Alignment                   : Split accross interleaves
Interleave, duration        : 42  ms (1.00 video frame)
Interleave, preload duratio : 500  ms

Скриншоты

[Profile]  [PM] 
Display posts:    
Reply to topic

Current time is: 24-Jan 08:36

All times are UTC + 2



You cannot post new topics in this forum
You cannot reply to topics in this forum
You cannot edit your posts in this forum
You cannot delete your posts in this forum
You cannot vote in polls in this forum
You cannot attach files in this forum
You cannot download files in this forum