Трудная мишень 2 / Hard Target 2 (Роэль Рейн / Roel Reine) [2016, США, боевик, триллер, криминал, HDRip] Dub

Reply to topic
 
Author
Message

Satyr ®

Gender: Unknown

Longevity: 10 years

Posts: 12852

Reputation: 54 [+] [-]

Satyr · Post 11-Sep-2016 01:21

[Quote] 

Трудная мишень 2 / Hard Target 2
Страна: США
Жанр: Боевик, триллер, криминал
Год выпуска: 2016
Продолжительность: 01:43:33
Перевод: Профессиональный (дублированный) BD CEE
Cубтитры: нет
Режиссер: Роэль Рейн / Roel Reine
В ролях: Скотт Эдкинс, Роберт Неппер, Рона Митра, Темуэра Моррисон, Адам Саундерс, Джэйми Тимони, Питер Харди, Шон Кинэн , Йанин Висмитананда, Дамиан Мевис, Байрон Гибсон, Сахайак Бунсанакит, Антео Квинтавалле, Эйн О’Брайэн, Джеффри Джулиано, Дэвид Асаванонд, Куллет Эрик, Гиги Велиситат, Амарин Чолвибул, Крис Ловенштейн
Описание: Продолжение культового экшн-триллера 1993 года о подпольных игрищах, где проплаченные «охотники» травят, как дичь, похищенных людей. Новой мишенью становится опальный мастер боевых искусств, который соблазнился деньгами, даже не подозревая, на что подписывается. Но и его преследователи еще не знают, с кем связались.
Сэмпл: http://multi-up.com/1115147
Качество видео: HDRip
Формат видео: AVI
Видео: XviD, 720x400, (16:9), 24,000 fps, 1434 Кбит/с, 8 бит
Аудио: Русский (АС3, 6 ch (Front: L C R, Side: L R, LFE), 48,0 KHz, 448 Kbps)

MediaInfo

Общее
Полное имя : F:\Видеофильмы\В и д е о\Трудная мишень 2 (боевик Скотт Эдкинс 2016г).avi
Формат : AVI
Формат/Информация : Audio Video Interleave
Размер файла : 1,37 Гбайт
Продолжительность : 1 ч. 43 м.
Общий поток : 1892 Кбит/сек
Программа кодирования : VirtualDubMod 1.5.10.2 (build 2540/release)
Библиотека кодирования : VirtualDubMod build 2540/release
Видео
Идентификатор : 0
Формат : MPEG-4 Visual
Профиль формата : Advanced Simple@L5
Параметр BVOP формата : 2
Параметр QPel формата : Нет
Параметр GMC формата : Без точки перехода
Параметр матрицы формата : Выборочная
Идентификатор кодека : XVID
Идентификатор кодека/Подсказка : XviD
Продолжительность : 1 ч. 43 м.
Битрейт : 1434 Кбит/сек
Ширина : 720 пикселей
Высота : 400 пикселей
Соотношение сторон : 16:9
Частота кадров : 23,976 (24000/1001) кадра/сек
Цветовое пространство : YUV
Субдискретизация насыщенности : 4:2:0
Битовая глубина : 8 бит
Тип развёртки : Прогрессивная
Метод сжатия : С потерями
Бит/(Пиксели*Кадры) : 0.208
Размер потока : 1,04 Гбайт (76%)
Библиотека кодирования : XviD 1.2.1 (UTC 2008-12-04)
Аудио
Идентификатор : 1
Формат : AC-3
Формат/Информация : Audio Coding 3
Расширение режима : CM (complete main)
Параметр Endianness формата : Big
Идентификатор кодека : 2000
Продолжительность : 1 ч. 43 м.
Вид битрейта : Постоянный
Битрейт : 448 Кбит/сек
Каналы : 6 каналов
Расположение каналов : Front: L C R, Side: L R, LFE
Частота : 48,0 КГц
Частота кадров : 31,250 кадров/сек (1536 spf)
Метод сжатия : С потерями
Размер потока : 332 Мбайт (24%)
Выравнивание : Разделение по промежуткам
Продолжительность промежутка : 42 мс. (1,00 видеокадр)
Время предзагрузки промежутка : 500 мс.

Скриншот c названием фильма

[Profile]  [PM] 
Display posts:    
Reply to topic

Current time is: 21-Apr 10:04

All times are UTC + 2



You cannot post new topics in this forum
You cannot reply to topics in this forum
You cannot edit your posts in this forum
You cannot delete your posts in this forum
You cannot vote in polls in this forum
You cannot attach files in this forum
You cannot download files in this forum