По ту сторону двери / The Other Side of the Door (Йоханнес Робертс / Johannes Roberts) [2016, Великобритания, США, ужасы, BDRip-AVC] Dub + Original + Sub (rus, eng)

Reply to topic
 
Author
Message

Satyr ®

Gender: Unknown

Longevity: 10 years

Posts: 13513

Reputation: 54 [+] [-]

Satyr · Post 11-Sep-2016 01:21

[Quote] 

По ту сторону двери / The Other Side of the Door
«It was never meant to be opened»
- Страна: Великобритания, США, Индия
Жанр: ужасы
Год выпуска: 2016
Продолжительность: 01:35:41
Перевод: Профессиональный (полное дублирование) (iTunes)
Оригинальная аудиодорожка: английский
Cубтитры: русские (полные) английские (полные, SDH)
Навигация по главам: есть
Режиссер: Йоханнес Робертс / Johannes Roberts
В ролях: Сара Уэйн Кэллис, Джереми Систо, София Росински, Хавьер Ботет, Джакс Малкольм, Сучитра Пиллай-Малик
Описание: Идиллическая жизнь молодой семьи за границей трагически прерывается гибелью маленького сына. Безутешная мать узнает о существовании древнего ритуала, который позволяет на время вернуть умерших, чтобы с ними попрощаться. Девушка отправляется в заброшенный храм, где двери служат порталом между мирами живых и мертвых, но пренебрегает предупреждением не открывать эти таинственные врата. И теперь никто не знает, что станет с нашим миром после нарушения баланса жизни и смерти.- -Качество: BDRip-AVC (исходник - BDRemux|The.Other.Side.Of.The.Door.2016.1080p.BluRay.REMUX.AVC.DTS-HD.MA.5.1-RARBG)
Формат видео: MKV
Видео: x264, 1152x482 (2.40:1), 23,976 fps, ~2485 kbps, 0.187 bit/pixel
Аудио 1: 48 kHz, AC3 Dolby Digital, 3/2 (L,C,R,l,r) + LFE ch, ~384 kbps [русский]
Аудио 2: 48 kHz, AC3 Dolby Digital, 3/2 (L,C,R,l,r) + LFE ch, ~384 kbps [английский]
Формат субтитров: softsub (SRT)-

MediaInfo | x264 log

Format : Matroska
Format version : Version 4 / Version 2
File size : 2.17 GiB
Duration : 1h 35mn
Overall bit rate : 3 252 Kbps
Movie name : По ту сторону двери / The Other Side of the Door (2016) :: AFM ::
Encoded date : UTC 2016-08-25 07:46:06
Writing application : mkvmerge v8.3.0 ('Over the Horizon') 32bit
Writing library : libebml v1.3.1 + libmatroska v1.4.2
Video
ID : 1
Format : AVC
Format/Info : Advanced Video Codec
Format profile : High@L4.1
Format settings, CABAC : Yes
Format settings, ReFrames : 11 frames
Codec ID : V_MPEG4/ISO/AVC
Duration : 1h 35mn
Bit rate : 2 485 Kbps
Width : 1 152 pixels
Height : 482 pixels
Display aspect ratio : 2.40:1
Frame rate mode : Constant
Frame rate : 23.976 fps
Color space : YUV
Chroma subsampling : 4:2:0
Bit depth : 8 bits
Scan type : Progressive
Bits/(Pixel*Frame) : 0.187
Stream size : 1.62 GiB (74%)
Title : BDRip by AFM [torrentsland.com.ua]
Writing library : x264 core 148 r2665+53 6629127 t_mod_Custom [8-bit@all X86_64]
Encoding settings : cabac=1 / ref=11 / deblock=1:-3:-3 / analyse=0x3:0x113 / me=umh / subme=10 / psy=1 / fade_compensate=0.00 / psy_rd=1.00:0.00 / mixed_ref=1 / me_range=32 / chroma_me=1 / trellis=2 / 8x8dct=1 / cqm=0 / deadzone=21,11 / fast_pskip=0 / chroma_qp_offset=-2 / threads=6 / lookahead_threads=1 / sliced_threads=0 / nr=0 / decimate=0 / interlaced=0 / bluray_compat=0 / constrained_intra=0 / fgo=0 / bframes=13 / b_pyramid=2 / b_adapt=2 / b_bias=0 / direct=3 / weightb=1 / open_gop=0 / weightp=2 / keyint=250 / keyint_min=23 / scenecut=40 / intra_refresh=0 / rc_lookahead=40 / rc=2pass / mbtree=0 / bitrate=2485 / ratetol=1.0 / qcomp=0.65 / qpmin=0:0:0 / qpmax=69:69:69 / qpstep=4 / cplxblur=20.0 / qblur=0.5 / vbv_maxrate=50000 / vbv_bufsize=62500 / nal_hrd=none / filler=0 / ip_ratio=1.35 / pb_ratio=1.30 / aq=3:0.90 / aq-sensitivity=10.00 / aq-factor=1.00:1.00:1.00 / aq2=0 / aq3=0
Language : English
Default : Yes
Forced : No
Audio #1
ID : 2
Format : AC-3
Format/Info : Audio Coding 3
Mode extension : CM (complete main)
Format settings, Endianness : Big
Codec ID : A_AC3
Duration : 1h 35mn
Bit rate mode : Constant
Bit rate : 384 Kbps
Channel(s) : 6 channels
Channel positions : Front: L C R, Side: L R, LFE
Sampling rate : 48.0 KHz
Compression mode : Lossy
Stream size : 263 MiB (12%)
Title : Dub, AC3 5.1 ~384 kbps
Language : Russian
Default : Yes
Forced : No
Audio #2
ID : 3
Format : AC-3
Format/Info : Audio Coding 3
Mode extension : CM (complete main)
Format settings, Endianness : Big
Codec ID : A_AC3
Duration : 1h 35mn
Bit rate mode : Constant
Bit rate : 384 Kbps
Channel(s) : 6 channels
Channel positions : Front: L C R, Side: L R, LFE
Sampling rate : 48.0 KHz
Compression mode : Lossy
Stream size : 263 MiB (12%)
Title : Original, AC3 5.1 ~384 kbps
Language : English
Default : No
Forced : No
Text #1
ID : 4
Format : UTF-8
Codec ID : S_TEXT/UTF8
Codec ID/Info : UTF-8 Plain Text
Language : Russian
Default : No
Forced : No
Text #2
ID : 5
Format : UTF-8
Codec ID : S_TEXT/UTF8
Codec ID/Info : UTF-8 Plain Text
Language : English
Default : No
Forced : No
Text #3
ID : 6
Format : UTF-8
Codec ID : S_TEXT/UTF8
Codec ID/Info : UTF-8 Plain Text
Title : SDH
Language : English
Default : No
Forced : No
Menu
00:00:00.000 : Chapter 01
00:04:06.872 : Chapter 02
00:09:23.271 : Chapter 03
00:11:45.705 : Chapter 04
00:14:41.089 : Chapter 05
00:18:52.423 : Chapter 05
00:22:56.834 : Chapter 06
00:24:35.432 : Chapter 07
00:27:46.832 : Chapter 08
00:32:29.739 : Chapter 09
00:36:01.326 : Chapter 10
00:40:49.739 : Chapter 11
00:45:00.615 : Chapter 12
00:49:00.980 : Chapter 13
00:54:37.107 : Chapter 14
00:59:41.578 : Chapter 15
01:04:47.884 : Chapter 16
01:07:49.565 : Chapter 17
01:12:16.290 : Chapter 18
01:17:07.832 : Chapter 19
01:22:19.935 : Chapter 20
01:25:11.606 : Chapter 21
01:29:05.340 : Chapter 22
01:31:18.098 : Chapter 23

x264

x264 [info]: frame I:861 Avg QP:12.93 size: 72570
x264 [info]: frame P:29970 Avg QP:15.95 size: 27410
x264 [info]: frame B:106808 Avg QP:17.23 size: 8404
x264 [info]: consecutive B-frames: 2.6% 3.5% 8.2% 17.8% 16.1% 30.4% 8.3% 6.3% 2.2% 0.8% 0.9% 1.7% 0.6% 0.7%
x264 [info]: mb I I16..4: 5.7% 81.6% 12.7%
x264 [info]: mb P I16..4: 1.6% 11.2% 1.6% P16..4: 36.8% 30.0% 15.7% 0.0% 0.0% skip: 3.0%
x264 [info]: mb B I16..4: 0.2% 0.9% 0.1% B16..8: 39.4% 15.2% 3.7% direct: 6.8% skip:33.7% L0:46.2% L1:44.0% BI: 9.7%
x264 [info]: 8x8 transform intra:77.8% inter:60.2%
x264 [info]: direct mvs spatial:98.0% temporal:2.0%
x264 [info]: coded y,uvDC,uvAC intra: 78.5% 89.5% 73.5% inter: 21.2% 37.0% 23.7%
x264 [info]: i16 v,h,dc,p: 41% 10% 7% 43%
x264 [info]: i8 v,h,dc,ddl,ddr,vr,hd,vl,hu: 20% 8% 7% 8% 11% 13% 11% 11% 11%
x264 [info]: i4 v,h,dc,ddl,ddr,vr,hd,vl,hu: 28% 5% 4% 9% 13% 13% 10% 9% 9%
x264 [info]: i8c dc,h,v,p: 43% 21% 20% 16%
x264 [info]: Weighted P-Frames: Y:97.9% UV:1.8%
x264 [info]: ref P L0: 46.5% 8.7% 17.9% 6.5% 5.8% 3.7% 3.6% 1.9% 1.9% 1.5% 1.6% 0.3% 0.0%
x264 [info]: ref B L0: 66.2% 14.2% 6.8% 3.9% 2.7% 2.3% 1.7% 1.2% 0.7% 0.3%
x264 [info]: ref B L1: 91.9% 8.1%
x264 [info]: kb/s:2482.71

Скриншоты

с названием

[Profile]  [PM] 
Display posts:    
Reply to topic

Current time is: 17-Jul 13:28

All times are UTC + 2



You cannot post new topics in this forum
You cannot reply to topics in this forum
You cannot edit your posts in this forum
You cannot delete your posts in this forum
You cannot vote in polls in this forum
You cannot attach files in this forum
You cannot download files in this forum