Голограмма для короля / A Hologram for the King (Том Тыквер / Tom Tykwer) [2016, Великобритания, Франция, комедия, драма, BDRip-AVC] Dub + Original + Sub (eng)

Reply to topic
 
Author
Message

Satyr ®

Gender: Unknown

Longevity: 10 years

Posts: 13513

Reputation: 54 [+] [-]

Satyr · Post 11-Sep-2016 01:21

[Quote] 

Голограмма для короля / A Hologram for the King- Страна: Великобритания, Франция, Германия, США, Мексика
Жанр: комедия, драма
Год выпуска: 2016
Продолжительность: 01:38:10
Перевод: Профессиональный (полное дублирование) (iTunes)
Оригинальная аудиодорожка: английский
Субтитры: английские (полные, SDH)
Навигация по главам: есть
Режиссер: Том Тыквер / Tom Tykwer
В ролях: Том Хэнкс, Александр Блэк, Сарита Чоудри, Сидсе Бабетт Кнудсен, Трэйси Фэирэуэй, Джейн Перри, Том Скерритт, Михаэль Бараль, Льюис Райнер, Александр Молкентин
Описание: Алан Клей - муж, отец, бизнесмен. Но его бизнес терпит крах, его брак трещит по швам, и он не знает, где взять деньги на оплату обучения дочери. Чтобы избежать банкротства и разорвать замкнутый круг, Клей отправляется в Саудовскую Аравию, где он надеется продвинуть свой дерзкий технологический проект. Во время томительного ожидания встречи с королем Алан познает скрытые тайны арабского мира, которые преображают реальность, подобно голограмме. Никто не подозревал, чем обернется это путешествие к Красному морю...- -Качество: BDRip-AVC (исходник - BDRemux|A.Hologram.for.the.King.2016.1080p.BluRay.REMUX.AVC.DTS-HD.MA.5.1-RARBG)
Формат видео: MKV
Видео : x264, 1152x482 (2.40:1), 23,976 fps, ~3372 kbps, 0.253 bit/pixel
Аудио 1: 48 kHz, AC3 Dolby Digital, 3/2 (L,C,R,l,r) + LFE ch, ~384 kbps [русский]
Аудио 2: 48 kHz, AC3 Dolby Digital, 3/2 (L,C,R,l,r) + LFE ch, ~384 kbps [английский]
Формат субтитров: softsub (SRT)-

MediaInfo | x264 log

Format : Matroska
Format version : Version 4 / Version 2
File size : 2.90 GiB
Duration : 1h 38mn
Overall bit rate : 4 225 Kbps
Movie name : Голограмма для короля / A Hologram for the King (2016) :: AFM ::
Encoded date : UTC 2016-08-09 11:20:14
Writing application : mkvmerge v8.3.0 ('Over the Horizon') 32bit
Writing library : libebml v1.3.1 + libmatroska v1.4.2
Video
ID : 1
Format : AVC
Format/Info : Advanced Video Codec
Format profile : High@L4.1
Format settings, CABAC : Yes
Format settings, ReFrames : 11 frames
Codec ID : V_MPEG4/ISO/AVC
Duration : 1h 38mn
Bit rate : 3 372 Kbps
Width : 1 152 pixels
Height : 482 pixels
Display aspect ratio : 2.40:1
Frame rate mode : Constant
Frame rate : 23.976 fps
Color space : YUV
Chroma subsampling : 4:2:0
Bit depth : 8 bits
Scan type : Progressive
Bits/(Pixel*Frame) : 0.253
Stream size : 2.31 GiB (80%)
Title : BDRip by AFM [torrentsland.com.ua]
Writing library : x264 core 148 r2705+54 9f484c1 t_mod_Custom [8-bit@all X86_64]
Encoding settings : cabac=1 / ref=11 / deblock=1:-3:-2 / analyse=0x3:0x113 / me=umh / subme=10 / psy=1 / fade_compensate=0.00 / psy_rd=1.00:0.00 / mixed_ref=1 / me_range=32 / chroma_me=1 / trellis=2 / 8x8dct=1 / cqm=0 / deadzone=21,11 / fast_pskip=0 / chroma_qp_offset=-2 / threads=6 / lookahead_threads=1 / sliced_threads=0 / nr=0 / decimate=1 / interlaced=0 / bluray_compat=0 / constrained_intra=0 / fgo=0 / bframes=15 / b_pyramid=2 / b_adapt=2 / b_bias=0 / direct=1 / weightb=1 / open_gop=0 / weightp=2 / keyint=250 / keyint_min=23 / scenecut=40 / intra_refresh=0 / rc_lookahead=40 / rc=crf / mbtree=0 / crf=18.7000 / qcomp=0.65 / qpmin=0:0:0 / qpmax=69:69:69 / qpstep=4 / vbv_maxrate=50000 / vbv_bufsize=62500 / crf_max=0.0 / nal_hrd=none / filler=0 / ip_ratio=1.35 / pb_ratio=1.30 / aq=3:0.80 / aq-sensitivity=10.00 / aq-factor=1.00:1.00:1.00 / aq2=0 / aq3=0
Language : English
Default : Yes
Forced : No
Audio #1
ID : 2
Format : AC-3
Format/Info : Audio Coding 3
Mode extension : CM (complete main)
Format settings, Endianness : Big
Codec ID : A_AC3
Duration : 1h 38mn
Bit rate mode : Constant
Bit rate : 384 Kbps
Channel(s) : 6 channels
Channel positions : Front: L C R, Side: L R, LFE
Sampling rate : 48.0 KHz
Compression mode : Lossy
Stream size : 270 MiB (9%)
Title : Dub, AC3 5.1 ~384 kbps
Language : Russian
Default : Yes
Forced : No
Audio #2
ID : 3
Format : AC-3
Format/Info : Audio Coding 3
Mode extension : CM (complete main)
Format settings, Endianness : Big
Codec ID : A_AC3
Duration : 1h 38mn
Bit rate mode : Constant
Bit rate : 384 Kbps
Channel(s) : 6 channels
Channel positions : Front: L C R, Side: L R, LFE
Sampling rate : 48.0 KHz
Compression mode : Lossy
Stream size : 270 MiB (9%)
Title : Original, AC3 5.1 ~384 kbps
Language : English
Default : No
Forced : No
Text #1
ID : 4
Format : UTF-8
Codec ID : S_TEXT/UTF8
Codec ID/Info : UTF-8 Plain Text
Language : English
Default : No
Forced : No
Text #2
ID : 5
Format : UTF-8
Codec ID : S_TEXT/UTF8
Codec ID/Info : UTF-8 Plain Text
Title : SDH
Language : English
Default : No
Forced : No
Menu
00:00:00.000 : en:Chapter 01
00:05:09.475 : en:Chapter 02
00:12:09.687 : en:Chapter 03
00:17:35.345 : en:Chapter 04
00:24:02.149 : en:Chapter 05
00:32:05.381 : en:Chapter 06
00:35:27.041 : en:Chapter 07
00:43:32.901 : en:Chapter 08
00:49:44.106 : en:Chapter 09
00:53:59.361 : en:Chapter 10
01:00:51.147 : en:Chapter 11
01:08:51.794 : en:Chapter 12
01:11:05.219 : en:Chapter 13
01:16:52.107 : en:Chapter 14
01:24:03.705 : en:Chapter 15
01:31:58.429 : en:Chapter 16

x264

x264 [info]: frame I:1397 Avg QP:17.69 size: 89538
x264 [info]: frame P:26467 Avg QP:19.12 size: 35368
x264 [info]: frame B:113362 Avg QP:20.95 size: 13076
x264 [info]: consecutive B-frames: 1.7% 1.2% 3.5% 11.5% 18.4% 46.7% 7.0% 1.8% 1.8% 1.2% 1.1% 1.1% 0.7% 0.6% 0.6% 1.3%
x264 [info]: mb I I16..4: 5.5% 77.4% 17.1%
x264 [info]: mb P I16..4: 0.4% 12.3% 1.7% P16..4: 33.2% 29.2% 17.1% 0.0% 0.0% skip: 6.1%
x264 [info]: mb B I16..4: 0.0% 1.4% 0.2% B16..8: 40.0% 13.2% 4.7% direct: 6.2% skip:34.3% L0:46.9% L1:41.8% BI:11.3%
x264 [info]: 8x8 transform intra:84.3% inter:61.1%
x264 [info]: coded y,uvDC,uvAC intra: 91.6% 86.3% 67.6% inter: 31.6% 19.7% 3.8%
x264 [info]: i16 v,h,dc,p: 51% 14% 8% 27%
x264 [info]: i8 v,h,dc,ddl,ddr,vr,hd,vl,hu: 13% 8% 11% 9% 12% 12% 13% 10% 12%
x264 [info]: i4 v,h,dc,ddl,ddr,vr,hd,vl,hu: 31% 7% 3% 7% 11% 11% 11% 9% 10%
x264 [info]: i8c dc,h,v,p: 41% 24% 19% 16%
x264 [info]: Weighted P-Frames: Y:5.4% UV:2.4%
x264 [info]: ref P L0: 41.3% 11.7% 18.3% 6.7% 6.2% 4.1% 4.1% 2.1% 2.1% 1.6% 1.7% 0.1% 0.0%
x264 [info]: ref B L0: 64.4% 13.3% 7.6% 4.1% 3.2% 2.6% 2.2% 1.4% 0.8% 0.3%
x264 [info]: ref B L1: 92.1% 7.9%
x264 [info]: kb/s:3454.47

Скриншоты

с названием

[Profile]  [PM] 
Display posts:    
Reply to topic

Current time is: 17-Jul 12:17

All times are UTC + 2



You cannot post new topics in this forum
You cannot reply to topics in this forum
You cannot edit your posts in this forum
You cannot delete your posts in this forum
You cannot vote in polls in this forum
You cannot attach files in this forum
You cannot download files in this forum