Подношение / Вера Анны Уотерс / The Faith of Anna Waters / The Offering (Келвин Тонг / Kelvin Tong) [2016, Сингапур, США, Ужасы, триллер, драма, детектив, HDRip] MVO (den904, DeadSno, Izanami, Agent Smith)

Reply to topic
 
Author
Message

Satyr ®

Gender: Unknown

Longevity: 10 years

Posts: 12852

Reputation: 54 [+] [-]

Satyr · Post 11-Sep-2016 01:21

[Quote] 

Подношение / Вера Анны Уотерс / The Faith of Anna Waters / The Offering
Страна: Сингапур, США
Жанр: Ужасы, триллер, драма, детектив
Год выпуска: 2016
Продолжительность: 01:35:33
Перевод: Любительский (многоголосый закадровый) den904, DeadSno, Izanami, Agent Smith
Cубтитры: нет
Режиссер: Келвин Тонг / Kelvin Tong
В ролях: Мэттью Сеттл, Элизабет Райс, Памелин Чи, Элизабет Лазан, Джейми Онг, Адина Херц, Кхенг Худ Тан, Адриан Пэна, Колин Боргонон, Райанн Конди
Описание: Когда молодой и успешный репортер Джейми узнает, что ее сестра умерла при загадочных обстоятельствах, она уезжает в Сингапур в поисках истины. По прибытии она обнаруживает несколько смертельных случаев, схожих с тем, что случилось с ее сестрой. Тогда она вынуждена объединить свои усилия с мужем сестры, чтобы победить демоническую сущность, которая использует современные технологии, чтобы завершить древнюю миссию.....
Сэмпл: http://multi-up.com/1114880
Качество видео: HDRip (Исходник The Offering (2016) BDRip [H.264/1080p])
Формат видео: AVI
Видео: XviD, 688x288, (2,40:1), 24,000 fps, 890 Кбит/с, 8 бит
Аудио: Русский (АС3, 2 ch (Front: L R), 48,0 KHz, 192 Kbps)

MediaInfo

Общее
Полное имя : F:\Видеофильмы\В и д е о\Подношение (ужасы, триллер, драма 2016г).avi
Формат : AVI
Формат/Информация : Audio Video Interleave
Размер файла : 745 Мбайт
Продолжительность : 1 ч. 35 м.
Общий поток : 1091 Кбит/сек
Программа кодирования : VirtualDubMod 1.5.10.3 | www.virtualdub-fr.org || (build 2550/release)
Библиотека кодирования : VirtualDubMod build 2550/release
Видео
Идентификатор : 0
Формат : MPEG-4 Visual
Профиль формата : Advanced Simple@L5
Параметр BVOP формата : 2
Параметр QPel формата : Нет
Параметр GMC формата : Без точки перехода
Параметр матрицы формата : Выборочная
Идентификатор кодека : XVID
Идентификатор кодека/Подсказка : XviD
Продолжительность : 1 ч. 35 м.
Битрейт : 890 Кбит/сек
Ширина : 688 пикселей
Высота : 288 пикселей
Соотношение сторон : 2,40:1
Частота кадров : 24,000 кадра/сек
Цветовое пространство : YUV
Субдискретизация насыщенности : 4:2:0
Битовая глубина : 8 бит
Тип развёртки : Прогрессивная
Метод сжатия : С потерями
Бит/(Пиксели*Кадры) : 0.187
Размер потока : 608 Мбайт (82%)
Библиотека кодирования : XviD 1.2.1 (UTC 2008-12-04)
Аудио
Идентификатор : 1
Формат : AC-3
Формат/Информация : Audio Coding 3
Расширение режима : CM (complete main)
Параметр Endianness формата : Big
Идентификатор кодека : 2000
Продолжительность : 1 ч. 35 м.
Вид битрейта : Постоянный
Битрейт : 192 Кбит/сек
Каналы : 2 канала
Расположение каналов : Front: L R
Частота : 48,0 КГц
Частота кадров : 31,250 кадров/сек (1536 spf)
Метод сжатия : С потерями
Размер потока : 131 Мбайт (18%)
Выравнивание : Разделение по промежуткам
Продолжительность промежутка : 42 мс. (1,00 видеокадр)
Время предзагрузки промежутка : 500 мс.

Скриншот c названием фильма

Скриншоты

[Profile]  [PM] 
Display posts:    
Reply to topic

Current time is: 21-Apr 10:23

All times are UTC + 2



You cannot post new topics in this forum
You cannot reply to topics in this forum
You cannot edit your posts in this forum
You cannot delete your posts in this forum
You cannot vote in polls in this forum
You cannot attach files in this forum
You cannot download files in this forum