Иллюзия обмана 2 / Now You See Me 2 (Джон М. Чу / Jon Chu) [2016, США, Китай, Великобритания, Канада, боевик, триллер, комедия, криминал, детектив, приключения, BDRip-AVC] [Open Matte] Dub + Sub Eng + Original Eng

Reply to topic
 
Author
Message

Satyr ®

Gender: Unknown

Longevity: 10 years

Posts: 12852

Reputation: 54 [+] [-]

Satyr · Post 11-Sep-2016 01:21

[Quote] 

Иллюзия обмана 2 / Now You See Me 2«Вы еще ничего не видели»- Страна: США, Китай, Великобритания, Канада
Жанр: боевик, триллер, комедия, криминал, детектив, приключения
Год выпуска: 2016
Продолжительность: 02:09:30-Перевод: Профессиональный (дублированный) (BD RUS)
Cубтитры: английские
Оригинальная аудиодорожка: английский-Режиссер: Джон М. Чу / Jon Chu
В ролях: Джесси Айзенберг, Марк Руффало, Вуди Харрельсон, Дэйв Франко, Дэниэл Рэдклифф, Лиззи Каплан, Джей Чоу, Санаа Лэтэн, Майкл Кейн, Морган Фриман, Дэвид Уоршофски, Тсаи Чин
Описание: «Четыре всадника», команда лучших иллюзионистов мира, снова в сборе! Их «магия» стала еще совершеннее, а враги - опаснее. На сей раз им предстоит спасти свою репутацию и вывести на чистую воду жестокого техномагната...- -Качество видео: BDRip-AVC [BDRemux / NOW_YOU_SEE_ME_2_REMUX_HDCLUB]
Формат видео: MKV
Видео: AVC, 1152*648 (16:9), 4 416 kb/s, 24 fps, 0.247 bit/pixel
Аудио 1: AC-3, 48.0 KHz, 384 Kbps, 5.1 ch [Rus]
Аудио 2: AC-3, 48.0 KHz, 384 Kbps, 5.1 ch [Eng]
Формат субтитров: softsub (SRT)

MediaInfo

General
Unique ID : 234708970037303189868014495604839377240 (0xB0934DA912EAABE097D7FFD383716958)
Complete name : C:\Movie\Иллюзия обмана 2 (Now You See Me 2) 2016.mkv
Format : Matroska
Format version : Version 4 / Version 2
File size : 4.69 GiB
Duration : 2 h 9 min
Overall bit rate : 5 186 kb/s
Movie name : Now You See Me 2. BDRip-AVC
Encoded date : UTC 2016-08-23 13:03:24
Writing application : mkvmerge v9.2.0 ('Photograph') 32bit
Writing library : libebml v1.3.3 + libmatroska v1.4.4
Cover : Yes
Attachments : cover.png
Video
ID : 1
Format : AVC
Format/Info : Advanced Video Codec
Format profile : High@L4.1
Format settings, CABAC : Yes
Format settings, ReFrames : 10 frames
Codec ID : V_MPEG4/ISO/AVC
Duration : 2 h 9 min
Bit rate : 4 416 kb/s
Width : 1 152 pixels
Height : 648 pixels
Display aspect ratio : 16:9
Frame rate mode : Constant
Frame rate : 24.000 FPS
Color space : YUV
Chroma subsampling : 4:2:0
Bit depth : 8 bits
Scan type : Progressive
Bits/(Pixel*Frame) : 0.247
Stream size : 4.00 GiB (85%)
Writing library : x264 core 148 r2638 7599210
Encoding settings : cabac=1 / ref=10 / deblock=1:-3:-2 / analyse=0x3:0x133 / me=umh / subme=11 / psy=1 / psy_rd=1.00:0.00 / mixed_ref=1 / me_range=32 / chroma_me=1 / trellis=2 / 8x8dct=1 / cqm=0 / deadzone=21,11 / fast_pskip=1 / chroma_qp_offset=-2 / threads=6 / lookahead_threads=1 / sliced_threads=0 / nr=0 / decimate=1 / interlaced=0 / bluray_compat=0 / constrained_intra=0 / bframes=12 / b_pyramid=2 / b_adapt=2 / b_bias=0 / direct=3 / weightb=1 / open_gop=0 / weightp=2 / keyint=240 / keyint_min=23 / scenecut=40 / intra_refresh=0 / rc_lookahead=60 / rc=crf / mbtree=1 / crf=17.9 / qcomp=0.60 / qpmin=0 / qpmax=69 / qpstep=4 / vbv_maxrate=62500 / vbv_bufsize=78125 / crf_max=0.0 / nal_hrd=none / filler=0 / ip_ratio=1.40 / aq=1:1.00
Default : Yes
Forced : No
Audio #1
ID : 2
Format : AC-3
Format/Info : Audio Coding 3
Mode extension : CM (complete main)
Format settings, Endianness : Big
Codec ID : A_AC3
Duration : 2 h 9 min
Bit rate mode : Constant
Bit rate : 384 kb/s
Channel(s) : 6 channels
Channel positions : Front: L C R, Side: L R, LFE
Sampling rate : 48.0 kHz
Frame rate : 31.250 FPS (1536 spf)
Compression mode : Lossy
Stream size : 356 MiB (7%)
Title : Dub
Language : Russian
Default : Yes
Forced : No
Audio #2
ID : 3
Format : AC-3
Format/Info : Audio Coding 3
Mode extension : CM (complete main)
Format settings, Endianness : Big
Codec ID : A_AC3
Duration : 2 h 9 min
Bit rate mode : Constant
Bit rate : 384 kb/s
Channel(s) : 6 channels
Channel positions : Front: L C R, Side: L R, LFE
Sampling rate : 48.0 kHz
Frame rate : 31.250 FPS (1536 spf)
Compression mode : Lossy
Stream size : 354 MiB (7%)
Title : Original
Language : English
Default : No
Forced : No
Text
ID : 4
Format : UTF-8
Codec ID : S_TEXT/UTF8
Codec ID/Info : UTF-8 Plain Text
Duration : 2 h 0 min
Bit rate : 80 b/s
Count of elements : 2129
Stream size : 71.1 KiB (0%)
Title : Full
Language : English
Default : No
Forced : No
Menu
00:00:00.000 : :Chapter 01
00:05:00.000 : :Chapter 02
00:10:00.000 : :Chapter 03
00:15:00.000 : :Chapter 04
00:20:00.000 : :Chapter 05
00:25:00.000 : :Chapter 06
00:30:00.000 : :Chapter 07
00:35:00.000 : :Chapter 08
00:40:00.000 : :Chapter 09
00:45:00.000 : :Chapter 10
00:50:00.000 : :Chapter 11
00:55:00.000 : :Chapter 12
01:00:00.000 : :Chapter 13
01:05:00.000 : :Chapter 14
01:10:00.000 : :Chapter 15
01:15:00.000 : :Chapter 16
01:20:00.000 : :Chapter 17
01:25:00.000 : :Chapter 18
01:30:00.000 : :Chapter 19
01:35:00.000 : :Chapter 20
01:40:00.000 : :Chapter 21
01:45:00.000 : :Chapter 22
01:50:00.000 : :Chapter 23
01:55:00.000 : :Chapter 24
02:00:00.000 : :Chapter 25
02:05:00.000 : :Chapter 26

x264

x264 [info]: frame I:1833 Avg QP:15.21 size:143194
x264 [info]: frame P:38220 Avg QP:19.36 size: 43394
x264 [info]: frame B:146425 Avg QP:21.32 size: 16176
x264 [info]: consecutive B-frames: 1.9% 1.7% 5.8% 21.4% 16.8% 38.3% 6.6% 1.3% 4.0% 0.5% 0.5% 0.4% 1.0%
x264 [info]: mb I I16..4: 4.8% 75.5% 19.7%
x264 [info]: mb P I16..4: 0.6% 8.9% 1.4% P16..4: 28.8% 35.8% 14.2% 2.2% 0.2% skip: 8.0%
x264 [info]: mb B I16..4: 0.1% 1.3% 0.2% B16..8: 39.0% 21.0% 4.1% direct: 5.3% skip:29.1% L0:44.8% L1:45.4% BI: 9.8%
x264 [info]: 8x8 transform intra:81.5% inter:60.3%
x264 [info]: direct mvs spatial:99.8% temporal:0.2%
x264 [info]: coded y,uvDC,uvAC intra: 90.2% 88.0% 72.6% inter: 29.7% 23.6% 6.3%
x264 [info]: i16 v,h,dc,p: 40% 18% 6% 36%
x264 [info]: i8 v,h,dc,ddl,ddr,vr,hd,vl,hu: 10% 7% 9% 10% 14% 13% 13% 11% 12%
x264 [info]: i4 v,h,dc,ddl,ddr,vr,hd,vl,hu: 13% 9% 6% 9% 14% 13% 13% 11% 12%
x264 [info]: i8c dc,h,v,p: 47% 19% 16% 18%
x264 [info]: Weighted P-Frames: Y:6.3% UV:4.5%
x264 [info]: ref P L0: 43.4% 9.6% 18.9% 7.8% 6.0% 4.0% 3.9% 2.2% 2.3% 1.6% 0.3% 0.0%
x264 [info]: ref B L0: 68.2% 13.8% 6.8% 3.6% 3.0% 1.9% 1.7% 0.6% 0.3%
x264 [info]: ref B L1: 91.1% 8.9%
x264 [info]: kb/s:4416.47

Скриншоты

-
[Profile]  [PM] 
Display posts:    
Reply to topic

Current time is: 21-Apr 10:47

All times are UTC + 2



You cannot post new topics in this forum
You cannot reply to topics in this forum
You cannot edit your posts in this forum
You cannot delete your posts in this forum
You cannot vote in polls in this forum
You cannot attach files in this forum
You cannot download files in this forum