Большой Босс / The Boss (Бен Фэлкоун / Ben Falcone) [2016, США, комедия, BDRip-AVC] [Театральная версия] Dub + Sub (rus)

Reply to topic
 
Author
Message

Satyr ®

Gender: Unknown

Longevity: 10 years

Posts: 12852

Reputation: 54 [+] [-]

Satyr · Post 11-Sep-2016 01:21

[Quote] 

Большой Босс
The Boss
«Watch your assets»
Театральная версия / Theatrical Cut


Страна: США
Жанр: комедия
Год выпуска: 2016
Продолжительность: 01:38:48
Перевод: Профессиональный (полное дублирование) [Blu-ray CEE]
Cубтитры: русские (форсированные)
Оригинальная аудиодорожка: нет
Режиссер: Бен Фэлкоун / Ben Falcone
В ролях: Мелисса МакКарти, Кристен Белл, Питер Динклэйдж, Элла Андерсон, Тайлер Лабин, Кэти Бейтс, Сесили Стронг, Мэри Сон, Кристен Шаал, Эва Питерсон, Тимоти С. Саймонс, Алеандра Ньюкомб
Описание:
В центре сюжета бизнес-леди, промышленный магнат, очутившаяся в тюрьме, погорев на теневых сделках. Отсидев положенное, женщина мечтает искупить вину и сменить статус мошенницы на всеобщую любимицу, только не все жертвы ее махинаций готовы пересмотреть свое отношение к ней.


Автор рипа: stalkerok
Сэмпл
Качество видео: BDRip-AVC [The Boss (2016) [Theatrical Cut] Blu-ray CEE 1080p AVC DTS 5.1 HDCLUB]
Формат видео: MKV
Видео: 1663 Кбит/сек, 936x506 (1.850), 23,976 кадр/сек, AVC
Аудио: русский, 448 Кбит/сек, 48 КГц, 16 бит, 5.1, AC3
Навигация по главам: есть

MediaInfo

Общее
Уникальный идентификатор : 199347163991740391265252745815280932022 (0x95F8DE03D614ADAABC62CAFA632D54B6)
Полное имя : M:\3Rips\The Boss\The.Boss.2016.BDRip-AVC.Dub.1.45Gb.stalkerok.new-team.mkv
Формат : Matroska
Версия формата : Version 4 / Version 2
Размер файла : 1,46 Гбайт
Продолжительность : 1 ч. 38 м.
Общий поток : 2113 Кбит/сек
Название фильма : The Boss (2016) (Rip by stalkerok)
Дата кодирования : UTC 2016-08-22 13:57:15
Программа кодирования : mkvmerge v8.6.1 ('Flying') 64bit
Библиотека кодирования : libebml v1.3.3 + libmatroska v1.4.4
Видео
Идентификатор : 1
Формат : AVC
Формат/Информация : Advanced Video Codec
Профиль формата : High@L4.1
Параметр CABAC формата : Да
Параметр ReFrames формата : 14 кадров
Идентификатор кодека : V_MPEG4/ISO/AVC
Продолжительность : 1 ч. 38 м.
Битрейт : 1663 Кбит/сек
Ширина : 936 пикселей
Высота : 506 пикселей
Соотношение сторон : 1,85:1
Режим частоты кадров : Постоянный
Частота кадров : 23,976 (24000/1001) кадра/сек
Цветовое пространство : YUV
Субдискретизация насыщенности : 4:2:0
Битовая глубина : 8 бит
Тип развёртки : Прогрессивная
Бит/(Пиксели*Кадры) : 0.146
Размер потока : 1,15 Гбайт (79%)
Заголовок : The Boss (2016) (Rip by stalkerok)
Библиотека кодирования : x264 core 148 r2705+54 9f484c1 t_mod_Custom [8-bit@all X86_64]
Настройки программы : cabac=1 / ref=14 / deblock=1:-3:-2 / analyse=0x3:0x133 / me=umh / subme=10 / psy=1 / fade_compensate=0.00 / psy_rd=1.00:0.00 / mixed_ref=1 / me_range=32 / chroma_me=1 / trellis=2 / 8x8dct=1 / cqm=0 / deadzone=21,11 / fast_pskip=0 / chroma_qp_offset=-2 / threads=12 / lookahead_threads=3 / sliced_threads=0 / nr=0 / decimate=0 / interlaced=0 / bluray_compat=0 / constrained_intra=0 / fgo=0 / bframes=14 / b_pyramid=2 / b_adapt=2 / b_bias=0 / direct=3 / weightb=1 / open_gop=0 / weightp=2 / keyint=240 / keyint_min=23 / scenecut=40 / intra_refresh=0 / rc_lookahead=60 / rc=2pass / mbtree=0 / bitrate=1663 / ratetol=1.0 / qcomp=0.65 / qpmin=0:0:0 / qpmax=69:69:69 / qpstep=4 / cplxblur=20.0 / qblur=0.5 / vbv_maxrate=50000 / vbv_bufsize=62500 / nal_hrd=none / filler=0 / ip_ratio=1.40 / pb_ratio=1.30 / aq=3:0.80 / aq-sensitivity=10.00 / aq-factor=1.00:1.00:1.00 / aq2=0 / aq3=0
Default : Да
Forced : Нет
Аудио
Идентификатор : 2
Формат : AC-3
Формат/Информация : Audio Coding 3
Расширение режима : CM (complete main)
Параметр Endianness формата : Big
Идентификатор кодека : A_AC3
Продолжительность : 1 ч. 38 м.
Вид битрейта : Постоянный
Битрейт : 448 Кбит/сек
Каналы : 6 каналов
Расположение каналов : Front: L C R, Side: L R, LFE
Частота : 48,0 КГц
Частота кадров : 31,250 кадров/сек (1536 spf)
Метод сжатия : С потерями
Размер потока : 317 Мбайт (21%)
Язык : Russian
Default : Да
Forced : Нет
Текст
Идентификатор : 3
Формат : UTF-8
Идентификатор кодека : S_TEXT/UTF8
Идентификатор кодека/Информация : UTF-8 Plain Text
Продолжительность : 1 ч. 35 м.
Битрейт : 1 бит/сек
Count of elements : 17
Размер потока : 776 байт (0%)
Заголовок : Forced, iTunes
Язык : Russian
Default : Да
Forced : Нет
Меню
00:00:00.000 : en:Chapter 1
00:05:59.984 : en:Chapter 2
00:09:41.455 : en:Chapter 3
00:14:48.345 : en:Chapter 4
00:20:44.159 : en:Chapter 5
00:24:03.817 : en:Chapter 6
00:29:59.839 : en:Chapter 7
00:35:27.542 : en:Chapter 8
00:39:59.105 : en:Chapter 9
00:44:55.484 : en:Chapter 10
00:50:30.027 : en:Chapter 11
00:53:32.209 : en:Chapter 12
00:59:51.296 : en:Chapter 13
01:05:55.076 : en:Chapter 14
01:10:32.061 : en:Chapter 15
01:13:54.680 : en:Chapter 16
01:19:30.223 : en:Chapter 17
01:25:08.019 : en:Chapter 18
01:32:06.229 : en:Chapter 19
01:33:26.434 : en:Chapter 20

Скриншоты

[Profile]  [PM] 
Display posts:    
Reply to topic

Current time is: 21-Apr 10:26

All times are UTC + 2



You cannot post new topics in this forum
You cannot reply to topics in this forum
You cannot edit your posts in this forum
You cannot delete your posts in this forum
You cannot vote in polls in this forum
You cannot attach files in this forum
You cannot download files in this forum