Миссия в Майами / Ride Along 2 (Тим Стори / Tim Story) [2016, США, боевик, комедия, BDRip-AVC] Dub + Sub (rus)

Reply to topic
 
Author
Message

Satyr ®

Gender: Unknown

Longevity: 10 years

Posts: 12858

Reputation: 54 [+] [-]

Satyr · Post 11-Sep-2016 01:21

[Quote] 

Миссия в Майами
Ride Along 2
«The brothers-in-law are back»

Страна: США
Жанр: боевик, комедия
Год выпуска: 2016
Продолжительность: 01:41:30
Перевод: Профессиональный (полное дублирование) [Blu-ray CEE]
Cубтитры: русские (форсированные)
Оригинальная аудиодорожка: нет
Режиссер: Тим Стори / Tim Story
В ролях: Айс Кьюб, Кевин Харт, Тика Самптер, Бенджамин Брэтт, Оливия Манн, Кен Жонг, Брюс МакГилл, Майкл Эдвард Роуз, Шерри Шеперд, Артуро дель Пуэрто, Эрик Гойнс, Карлос Гомес
Описание:
Накануне собственной свадьбы Бен отправляется с братом своей будущей жены, крутым полицейским Джеймсом, в Майами, чтобы схватить наркодельца.


Автор рипа: stalkerok
Сэмпл
Качество видео: BDRip-AVC [Ride Along 2 (2016) Blu-ray CEE 1080p AVC DTS 5.1 HDCLUB]
Формат видео: MKV
Видео: 962 Кбит/сек, 744*310 (2,40:1), в 23,976 (24000/1001) кадра/сек, AVC
Аудио: русский, 64,0 Кбит/сек, 48,0 КГц / 24,0 КГц, 2 канала, AAC (HE-AAC / LC)
Навигация по главам: есть

MediaInfo

Общее
Уникальный идентификатор : 201177734327497520815833276154403705610 (0x97596C19CA59A98FA2C0A65CE465530A)
Полное имя : M:\3Rips\Ride Along 2\Ride.Along.2.2016.BDRip-AVC.Dub.745Mb.stalkerok.new-team.mkv
Формат : Matroska
Версия формата : Version 4 / Version 2
Размер файла : 746 Мбайт
Продолжительность : 1 ч. 41 м.
Общий поток : 1028 Кбит/сек
Название фильма : Ride Along 2 (2016) (Rip by stalkerok)
Дата кодирования : UTC 2016-08-21 12:27:50
Программа кодирования : mkvmerge v8.6.1 ('Flying') 64bit
Библиотека кодирования : libebml v1.3.3 + libmatroska v1.4.4
Видео
Идентификатор : 1
Формат : AVC
Формат/Информация : Advanced Video Codec
Профиль формата : High@L4.1
Параметр CABAC формата : Да
Параметр ReFrames формата : 16 кадров
Идентификатор кодека : V_MPEG4/ISO/AVC
Продолжительность : 1 ч. 41 м.
Битрейт : 962 Кбит/сек
Ширина : 744 пикселя
Высота : 310 пикселей
Соотношение сторон : 2,40:1
Режим частоты кадров : Постоянный
Частота кадров : 23,976 (24000/1001) кадра/сек
Цветовое пространство : YUV
Субдискретизация насыщенности : 4:2:0
Битовая глубина : 8 бит
Тип развёртки : Прогрессивная
Бит/(Пиксели*Кадры) : 0.174
Размер потока : 698 Мбайт (94%)
Заголовок : Ride Along 2 (2016) (Rip by stalkerok)
Библиотека кодирования : x264 core 148 r2705+54 9f484c1 t_mod_Custom [8-bit@all X86_64]
Настройки программы : cabac=1 / ref=16 / deblock=1:-3:-2 / analyse=0x3:0x133 / me=umh / subme=10 / psy=1 / fade_compensate=0.00 / psy_rd=1.00:0.00 / mixed_ref=1 / me_range=32 / chroma_me=1 / trellis=2 / 8x8dct=1 / cqm=0 / deadzone=21,11 / fast_pskip=0 / chroma_qp_offset=-2 / threads=10 / lookahead_threads=2 / sliced_threads=0 / nr=0 / decimate=0 / interlaced=0 / bluray_compat=0 / constrained_intra=0 / fgo=0 / bframes=16 / b_pyramid=2 / b_adapt=2 / b_bias=0 / direct=3 / weightb=1 / open_gop=0 / weightp=2 / keyint=240 / keyint_min=23 / scenecut=40 / intra_refresh=0 / rc_lookahead=60 / rc=2pass / mbtree=0 / bitrate=962 / ratetol=1.0 / qcomp=0.65 / qpmin=0:0:0 / qpmax=69:69:69 / qpstep=4 / cplxblur=20.0 / qblur=0.5 / vbv_maxrate=50000 / vbv_bufsize=62500 / nal_hrd=none / filler=0 / ip_ratio=1.40 / pb_ratio=1.30 / aq=3:0.93 / aq-sensitivity=10.00 / aq-factor=1.00:1.00:1.00 / aq2=0 / aq3=0
Default : Да
Forced : Нет
Аудио
Идентификатор : 2
Формат : AAC
Формат/Информация : Advanced Audio Codec
Профиль формата : HE-AAC / LC
Идентификатор кодека : A_AAC
Продолжительность : 1 ч. 41 м.
Битрейт : 64,0 Кбит/сек
Каналы : 2 канала
Расположение каналов : Front: L R
Частота : 48,0 КГц / 24,0 КГц
Частота кадров : 23,438 кадра/сек (1024 spf)
Метод сжатия : С потерями
Задержка видео : 31 мс.
Размер потока : 46,5 Мбайт (6%)
Язык : Russian
Default : Да
Forced : Нет
Текст
Идентификатор : 3
Формат : UTF-8
Идентификатор кодека : S_TEXT/UTF8
Идентификатор кодека/Информация : UTF-8 Plain Text
Продолжительность : 1 ч. 40 м.
Битрейт : 0 бит/сек
Count of elements : 14
Размер потока : 541 байт (0%)
Заголовок : Forced
Язык : Russian
Default : Да
Forced : Нет
Меню
00:00:00.000 : en:Chapter 1
00:03:29.584 : en:Chapter 2
00:10:26.751 : en:Chapter 3
00:14:00.089 : en:Chapter 4
00:17:21.040 : en:Chapter 5
00:22:33.268 : en:Chapter 6
00:27:48.875 : en:Chapter 7
00:34:33.529 : en:Chapter 8
00:39:25.905 : en:Chapter 9
00:42:26.001 : en:Chapter 10
00:46:06.013 : en:Chapter 11
00:50:51.173 : en:Chapter 12
00:56:40.688 : en:Chapter 13
01:00:04.726 : en:Chapter 14
01:06:57.680 : en:Chapter 15
01:13:09.051 : en:Chapter 16
01:19:35.395 : en:Chapter 17
01:23:06.731 : en:Chapter 18
01:31:19.765 : en:Chapter 19
01:36:58.938 : en:Chapter 20

Скриншоты

[Profile]  [PM] 
Display posts:    
Reply to topic

Current time is: 22-Apr 18:57

All times are UTC + 2



You cannot post new topics in this forum
You cannot reply to topics in this forum
You cannot edit your posts in this forum
You cannot delete your posts in this forum
You cannot vote in polls in this forum
You cannot attach files in this forum
You cannot download files in this forum