Репортерша / Whiskey Tango Foxtrot (Гленн Фикарра / Glenn Ficarra, Джон Рекуа / John Requa) [2016, США, драма, комедия, военный, BDRip-AVC] Dub + Original Eng + Sub (Rus, Eng)

Reply to topic
 
Author
Message

Satyr ®

Gender: Unknown

Longevity: 10 years

Posts: 13513

Reputation: 54 [+] [-]

Satyr · Post 11-Sep-2016 01:21

[Quote] 

Репортерша / Whiskey Tango Foxtrot- Страна: США
Жанр: драма, комедия, военный, биография
Год выпуска: 2016
Продолжительность: 01:51:48
Перевод: Профессиональный (дублированный) (BD CEE)
Оригинальная аудиодорожка: английский
Субтитры: русские (форс., полные) английские (форс., полные, SDH)
Навигация по главам: есть
Режиссер: Гленн Фикарра / Glenn Ficarra, Джон Рекуа / John Requa
В ролях: Тина Фей (Kim Baker), Марго Робби (Tanya Vanderpoel), Мартин Фриман (Iain MacKelpie), Альфред Молина (Ali Massoud Sadiq), Кристофер Эбботт (Fahim Ahmadzai), Билли Боб Торнтон (General Hollanek), Николас Браун (Tall Brian), Стивен Пикок (Nic), Шейла Ванд (Shakira Khar), Эван Йоникит (Specialist Coughlin), Фахим Анвар (Jaweed), Джош Чарльз (Chris)
Описание: Фильм расскажет о деятельности журналистки в качестве репортёра в Афганистане и Пакистане, после прибытия туда в 2002 году.- -Качество: BDRip-AVC (исходник - BDRemux|WHISKEY_TANGO_FOXTROT_REMUX_HDCLUB)
Формат видео: MKV
Видео: x264, 1152x648 (16:9), 23,976 fps, ~2769 kbps, 0.155 bit/pixel
Аудио 1: 48 kHz, AC3 Dolby Digital, 3/2 (L,C,R,l,r) + LFE ch, ~448 kbps [русский]
Аудио 2: 48 kHz, AC3 Dolby Digital, 3/2 (L,C,R,l,r) + LFE ch, ~384 kbps [английский]
Формат субтитров: softsub (SRT)-

MediaInfo | x264 log

Format : Matroska
Format version : Version 4 / Version 2
File size : 2.87 GiB
Duration : 1h 51mn
Overall bit rate : 3 673 Kbps
Movie name : Репортерша / Whiskey Tango Foxtrot (2016) :: AFM ::
Encoded date : UTC 2016-08-19 20:48:16
Writing application : mkvmerge v8.3.0 ('Over the Horizon') 32bit
Writing library : libebml v1.3.1 + libmatroska v1.4.2
Video
ID : 1
Format : AVC
Format/Info : Advanced Video Codec
Format profile : High@L4.1
Format settings, CABAC : Yes
Format settings, ReFrames : 11 frames
Codec ID : V_MPEG4/ISO/AVC
Duration : 1h 51mn
Bit rate : 2 768 Kbps
Width : 1 152 pixels
Height : 648 pixels
Display aspect ratio : 16:9
Frame rate mode : Constant
Frame rate : 23.976 fps
Color space : YUV
Chroma subsampling : 4:2:0
Bit depth : 8 bits
Scan type : Progressive
Bits/(Pixel*Frame) : 0.155
Stream size : 2.16 GiB (75%)
Title : BDRip by AFM [torrentsland.com.ua]
Writing library : x264 core 148 r2705+54 9f484c1 t_mod_Custom [8-bit@all X86_64]
Encoding settings : cabac=1 / ref=11 / deblock=1:-2:-2 / analyse=0x3:0x113 / me=umh / subme=10 / psy=1 / fade_compensate=0.00 / psy_rd=1.00:0.00 / mixed_ref=1 / me_range=32 / chroma_me=1 / trellis=2 / 8x8dct=1 / cqm=0 / deadzone=21,11 / fast_pskip=0 / chroma_qp_offset=-2 / threads=6 / lookahead_threads=1 / sliced_threads=0 / nr=0 / decimate=1 / interlaced=0 / bluray_compat=0 / constrained_intra=0 / fgo=0 / bframes=14 / b_pyramid=2 / b_adapt=2 / b_bias=0 / direct=1 / weightb=1 / open_gop=0 / weightp=2 / keyint=250 / keyint_min=23 / scenecut=40 / intra_refresh=0 / rc_lookahead=40 / rc=crf / mbtree=0 / crf=18.8000 / qcomp=0.65 / qpmin=0:0:0 / qpmax=69:69:69 / qpstep=4 / vbv_maxrate=50000 / vbv_bufsize=62500 / crf_max=0.0 / nal_hrd=none / filler=0 / ip_ratio=1.35 / pb_ratio=1.30 / aq=3:0.80 / aq-sensitivity=10.00 / aq-factor=1.00:1.00:1.00 / aq2=0 / aq3=0
Language : English
Default : Yes
Forced : No
Audio #1
ID : 2
Format : AC-3
Format/Info : Audio Coding 3
Mode extension : CM (complete main)
Format settings, Endianness : Big
Codec ID : A_AC3
Duration : 1h 51mn
Bit rate mode : Constant
Bit rate : 448 Kbps
Channel(s) : 6 channels
Channel positions : Front: L C R, Side: L R, LFE
Sampling rate : 48.0 KHz
Compression mode : Lossy
Stream size : 358 MiB (12%)
Title : Dub, AC3 5.1 ~448 kbps
Language : Russian
Default : Yes
Forced : No
Audio #2
ID : 3
Format : AC-3
Format/Info : Audio Coding 3
Mode extension : CM (complete main)
Format settings, Endianness : Big
Codec ID : A_AC3
Duration : 1h 51mn
Bit rate mode : Constant
Bit rate : 384 Kbps
Channel(s) : 6 channels
Channel positions : Front: L C R, Side: L R, LFE
Sampling rate : 48.0 KHz
Compression mode : Lossy
Stream size : 307 MiB (10%)
Title : Original, AC3 5.1 ~384 kbps
Language : English
Default : No
Forced : No
Text #1
ID : 4
Format : UTF-8
Codec ID : S_TEXT/UTF8
Codec ID/Info : UTF-8 Plain Text
Title : forced
Language : Russian
Default : Yes
Forced : No
Text #2
ID : 5
Format : UTF-8
Codec ID : S_TEXT/UTF8
Codec ID/Info : UTF-8 Plain Text
Language : Russian
Default : No
Forced : No
Text #3
ID : 6
Format : UTF-8
Codec ID : S_TEXT/UTF8
Codec ID/Info : UTF-8 Plain Text
Title : forced
Language : English
Default : No
Forced : No
Text #4
ID : 7
Format : UTF-8
Codec ID : S_TEXT/UTF8
Codec ID/Info : UTF-8 Plain Text
Language : English
Default : No
Forced : No
Text #5
ID : 8
Format : UTF-8
Codec ID : S_TEXT/UTF8
Codec ID/Info : UTF-8 Plain Text
Title : SDH
Language : English
Default : No
Forced : No
Menu
00:00:00.000 : en:Chapter 01
00:07:46.466 : en:Chapter 02
00:13:47.908 : en:Chapter 03
00:23:38.834 : en:Chapter 04
00:30:28.660 : en:Chapter 05
00:37:27.036 : en:Chapter 06
00:45:36.775 : en:Chapter 07
00:55:40.585 : en:Chapter 08
01:05:02.106 : en:Chapter 09
01:12:14.453 : en:Chapter 10
01:17:50.332 : en:Chapter 11
01:24:56.006 : en:Chapter 12
01:34:04.970 : en:Chapter 13
01:39:50.649 : en:Chapter 14
01:51:48.118 : en:Chapter 15

x264

x264 [info]: frame I:1286 Avg QP:16.25 size: 79768
x264 [info]: frame P:31728 Avg QP:17.83 size: 31360
x264 [info]: frame B:127826 Avg QP:20.39 size: 10034
x264 [info]: consecutive B-frames: 1.4% 1.5% 5.8% 18.3% 17.7% 38.1% 7.0% 1.4% 1.9% 1.6% 1.3% 0.5% 1.0% 1.1% 1.4%
x264 [info]: mb I I16..4: 9.0% 76.2% 14.8%
x264 [info]: mb P I16..4: 1.0% 10.8% 1.3% P16..4: 38.6% 27.2% 13.8% 0.0% 0.0% skip: 7.3%
x264 [info]: mb B I16..4: 0.1% 0.6% 0.1% B16..8: 42.5% 10.8% 2.6% direct: 5.0% skip:38.3% L0:46.4% L1:45.7% BI: 7.9%
x264 [info]: 8x8 transform intra:80.9% inter:68.2%
x264 [info]: coded y,uvDC,uvAC intra: 84.7% 84.7% 65.5% inter: 22.0% 21.1% 4.5%
x264 [info]: i16 v,h,dc,p: 32% 14% 9% 45%
x264 [info]: i8 v,h,dc,ddl,ddr,vr,hd,vl,hu: 12% 8% 8% 10% 13% 13% 13% 12% 11%
x264 [info]: i4 v,h,dc,ddl,ddr,vr,hd,vl,hu: 11% 8% 3% 10% 16% 15% 13% 11% 11%
x264 [info]: i8c dc,h,v,p: 46% 20% 18% 17%
x264 [info]: Weighted P-Frames: Y:5.4% UV:2.1%
x264 [info]: ref P L0: 44.4% 8.6% 17.0% 7.2% 6.1% 4.3% 4.0% 2.2% 2.1% 2.0% 2.0% 0.2% 0.0%
x264 [info]: ref B L0: 69.8% 11.8% 6.3% 3.9% 2.4% 1.9% 1.7% 1.0% 0.7% 0.5%
x264 [info]: ref B L1: 93.5% 6.5%
x264 [info]: kb/s:2838.47

Скриншоты

с названием

20.08 торрент перезалит - замена звука iTunes -> BD CEE
[Profile]  [PM] 
Display posts:    
Reply to topic

Current time is: 17-Jul 12:35

All times are UTC + 2



You cannot post new topics in this forum
You cannot reply to topics in this forum
You cannot edit your posts in this forum
You cannot delete your posts in this forum
You cannot vote in polls in this forum
You cannot attach files in this forum
You cannot download files in this forum