Эдди «Орел» / Eddie the Eagle (Декстер Флетчер / Dexter Fletcher) [2016, Великобритания, США, Германия, драма, комедия, биография, BDRip-AVC] Dub + Sub (rus)

Reply to topic
 
Author
Message

Satyr ®

Gender: Unknown

Longevity: 10 years

Posts: 12852

Reputation: 54 [+] [-]

Satyr · Post 11-Sep-2016 01:21

[Quote] 

Эдди «Орел»
Eddie the Eagle
«The hysterical true life story of Britain's most famous ski jumper Eddie 'The Eagle' Edwards and his journey to Olympic fame»

Страна: Великобритания, США, Германия
Жанр: драма, комедия, биография, спорт
Год выпуска: 2016
Продолжительность: 01:45:43
Перевод: Профессиональный (полное дублирование) [Blu-ray CEE]
Cубтитры: русские (форсированные)
Оригинальная аудиодорожка: нет
Режиссер: Декстер Флетчер / Dexter Fletcher
В ролях: Тэрон Эджертон, Хью Джекман, Кристофер Уокен, Джо Хартли, Том Костелло, Кит Аллен, Дикон Толсон, Джек Костелло, Марк Бентон, Тим МакИннерни, Эдвин Эндре, Мэдс Сьёгард Петтерсен
Описание:
Фильм повествует о трамплинисте Эдди, по прозвищу «Орел». Он прославился благодаря своим неудачам, ибо на всех соревнованиях он занимал последние места.


Автор рипа: stalkerok
Сэмпл
Качество видео: BDRip-AVC [Eddie the Eagle (2016) Blu-ray CEE 1080p AVC DTS 5.1 HDCLUB]
Формат видео: MKV
Видео: 1525 Кбит/сек, 960x402 (2.40:1), 23,976 кадр/сек, AVC
Аудио: русский, 448 Кбит/сек, 48 КГц, 16 бит, 5.1, AC3
Навигация по главам: есть

MediaInfo

Общее
Уникальный идентификатор : 173702076841689670132257989812868379480 (0x82ADCD9937B9F1B283DB29489F007358)
Полное имя : M:\3Rips\Eddie the Eagle\Eddie.the.Eagle.2016.BDRip-AVC.Dub.1.45Gb.stalkerok.new-team.mkv
Формат : Matroska
Версия формата : Version 4 / Version 2
Размер файла : 1,46 Гбайт
Продолжительность : 1 ч. 45 м.
Общий поток : 1974 Кбит/сек
Название фильма : Eddie the Eagle (2016) (Rip by stalkerok)
Дата кодирования : UTC 2016-08-19 17:27:36
Программа кодирования : mkvmerge v8.6.1 ('Flying') 64bit
Библиотека кодирования : libebml v1.3.3 + libmatroska v1.4.4
Видео
Идентификатор : 1
Формат : AVC
Формат/Информация : Advanced Video Codec
Профиль формата : High@L4.1
Параметр CABAC формата : Да
Параметр ReFrames формата : 14 кадров
Идентификатор кодека : V_MPEG4/ISO/AVC
Продолжительность : 1 ч. 45 м.
Битрейт : 1525 Кбит/сек
Ширина : 960 пикселей
Высота : 402 пикселя
Соотношение сторон : 2,40:1
Режим частоты кадров : Постоянный
Частота кадров : 23,976 (24000/1001) кадра/сек
Цветовое пространство : YUV
Субдискретизация насыщенности : 4:2:0
Битовая глубина : 8 бит
Тип развёртки : Прогрессивная
Бит/(Пиксели*Кадры) : 0.165
Размер потока : 1,13 Гбайт (77%)
Заголовок : Eddie the Eagle (2016) (Rip by stalkerok)
Библиотека кодирования : x264 core 148 r2705+54 9f484c1 t_mod_Custom [8-bit@all X86_64]
Настройки программы : cabac=1 / ref=14 / deblock=1:-3:-2 / analyse=0x3:0x133 / me=umh / subme=10 / psy=1 / fade_compensate=0.00 / psy_rd=1.00:0.00 / mixed_ref=1 / me_range=32 / chroma_me=1 / trellis=2 / 8x8dct=1 / cqm=0 / deadzone=21,11 / fast_pskip=0 / chroma_qp_offset=-2 / threads=12 / lookahead_threads=3 / sliced_threads=0 / nr=0 / decimate=0 / interlaced=0 / bluray_compat=0 / constrained_intra=0 / fgo=0 / bframes=14 / b_pyramid=2 / b_adapt=2 / b_bias=0 / direct=3 / weightb=1 / open_gop=0 / weightp=2 / keyint=240 / keyint_min=23 / scenecut=40 / intra_refresh=0 / rc_lookahead=60 / rc=2pass / mbtree=0 / bitrate=1525 / ratetol=1.0 / qcomp=0.65 / qpmin=0:0:0 / qpmax=69:69:69 / qpstep=4 / cplxblur=20.0 / qblur=0.5 / vbv_maxrate=50000 / vbv_bufsize=62500 / nal_hrd=none / filler=0 / ip_ratio=1.40 / pb_ratio=1.30 / aq=3:0.80 / aq-sensitivity=10.00 / aq-factor=1.00:1.00:1.00 / aq2=0 / aq3=0
Default : Да
Forced : Нет
Аудио
Идентификатор : 2
Формат : AC-3
Формат/Информация : Audio Coding 3
Расширение режима : CM (complete main)
Параметр Endianness формата : Big
Идентификатор кодека : A_AC3
Продолжительность : 1 ч. 45 м.
Вид битрейта : Постоянный
Битрейт : 448 Кбит/сек
Каналы : 6 каналов
Расположение каналов : Front: L C R, Side: L R, LFE
Частота : 48,0 КГц
Частота кадров : 31,250 кадров/сек (1536 spf)
Метод сжатия : С потерями
Размер потока : 339 Мбайт (23%)
Язык : Russian
Default : Да
Forced : Нет
Текст
Идентификатор : 3
Формат : UTF-8
Идентификатор кодека : S_TEXT/UTF8
Идентификатор кодека/Информация : UTF-8 Plain Text
Продолжительность : 1 ч. 44 м.
Битрейт : 2 бит/сек
Count of elements : 25
Размер потока : 1,55 Кбайт (0%)
Заголовок : Forced, iTunes
Язык : Russian
Default : Да
Forced : Нет
Меню
00:00:00.000 : en:Chapter 1
00:03:33.171 : en:Chapter 2
00:08:15.161 : en:Chapter 3
00:12:06.684 : en:Chapter 4
00:17:54.573 : en:Chapter 5
00:21:31.081 : en:Chapter 6
00:26:19.578 : en:Chapter 7
00:31:41.566 : en:Chapter 8
00:37:13.272 : en:Chapter 9
00:41:46.962 : en:Chapter 10
00:47:12.329 : en:Chapter 11
00:50:19.349 : en:Chapter 12
00:53:39.591 : en:Chapter 13
00:56:57.580 : en:Chapter 14
01:02:22.905 : en:Chapter 15
01:08:16.884 : en:Chapter 16
01:11:42.298 : en:Chapter 17
01:17:05.787 : en:Chapter 18
01:20:00.587 : en:Chapter 19
01:23:23.456 : en:Chapter 20
01:27:44.592 : en:Chapter 21
01:31:40.119 : en:Chapter 22
01:36:53.057 : en:Chapter 23
01:40:42.077 : en:Chapter 24

Скриншоты

[Profile]  [PM] 
Display posts:    
Reply to topic

Current time is: 21-Apr 10:55

All times are UTC + 2



You cannot post new topics in this forum
You cannot reply to topics in this forum
You cannot edit your posts in this forum
You cannot delete your posts in this forum
You cannot vote in polls in this forum
You cannot attach files in this forum
You cannot download files in this forum