Финансовый монстр / Money Monster (Джоди Фостер / Jodie Foster) [2016, США, триллер, драма, криминал, BDRip] Dub

Reply to topic
 
Author
Message

Satyr ®

Gender: Unknown

Longevity: 10 years

Posts: 12858

Reputation: 54 [+] [-]

Satyr · Post 11-Sep-2016 01:21

[Quote] 

Финансовый монстр / Money Monster«Not every conspiracy is a theory»- Страна: США
Жанр: триллер, драма, криминал
Год выпуска: 2016
Продолжительность: 01:38:40
Перевод: Профессиональный (дублированный) (iTunes)
Оригинальная аудиодорожка: нет
Cубтитры: нет
Режиссеры: Джоди Фостер / Jodie Foster
В ролях: Джордж Клуни, Джулия Робертс, Джек О'Коннелл, Доминик Уэст, Катрина Балф, Джанкарло Эспозито, Кристофер Денэм, Ленни Венито, Кристофер Бауэр, Деннис Буцикарис
Описание: Сюжет фильма разворачивается вокруг Ли Гейтса, известного телеведущего, чьи финансовые советы сделали его настоящим гуру Уолл-Стрит. Один из зрителей шоу, воспользовавшись неудачным советом Ли, потерял все свое состояние и теперь хочет возмездия. Он берет знаменитость в заложники и тем самым поднимает рейтинги передачи, люди замерли перед экранами в ожидании ответа на вопрос: сколько стоит человеческая жизнь?- -Качество видео: BDRip (исходник - BDRemux|Money.Monster.2016.REMUX.1080p.BluRay.1080p.AVC.DTS-HD.MA.5.1-iFT)
Формат видео: AVI
Видео: XviD, 720x304, 23,976 fps, ~1730 kbps, 0.330 bit/pixel
Аудио: 48 kHz, AC3 Dolby Digital, 3/2 (L,C,R,l,r) + LFE ch, ~384 kbps

MediaInfo

Format : AVI
Format/Info : Audio Video Interleave
File size : 1.46 GiB
Duration : 1h 38mn
Overall bit rate : 2 123 Kbps
Movie name : Финансовый монстр / Money Monster (2016) :: AFM ::
Writing application : VirtualDubMod 1.5.10.3 | www.virtualdub-fr.org || (build 2550/release)
Writing library : VirtualDubMod build 2550/release
Copyright : torrentsland.com.ua
Video
ID : 0
Format : MPEG-4 Visual
Format profile : Advanced Simple@L5
Format settings, BVOP : 1
Format settings, QPel : No
Format settings, GMC : No warppoints
Format settings, Matrix : Custom
Codec ID : XVID
Codec ID/Hint : XviD
Duration : 1h 38mn
Bit rate : 1 730 Kbps
Width : 720 pixels
Height : 304 pixels
Display aspect ratio : 2.35:1
Frame rate : 23.976 fps
Color space : YUV
Chroma subsampling : 4:2:0
Bit depth : 8 bits
Scan type : Progressive
Compression mode : Lossy
Bits/(Pixel*Frame) : 0.330
Stream size : 1.19 GiB (81%)
Writing library : XviD 73
Audio
ID : 1
Format : AC-3
Format/Info : Audio Coding 3
Mode extension : CM (complete main)
Format settings, Endianness : Big
Codec ID : 2000
Duration : 1h 38mn
Bit rate mode : Constant
Bit rate : 384 Kbps
Channel(s) : 6 channels
Channel positions : Front: L C R, Side: L R, LFE
Sampling rate : 48.0 KHz
Compression mode : Lossy
Stream size : 271 MiB (18%)
Alignment : Split accross interleaves
Interleave, duration : 42 ms (1.00 video frame)
Interleave, preload duration : 500 ms

Скриншоты

с названием

[Profile]  [PM] 
Display posts:    
Reply to topic

Current time is: 22-Apr 18:11

All times are UTC + 2



You cannot post new topics in this forum
You cannot reply to topics in this forum
You cannot edit your posts in this forum
You cannot delete your posts in this forum
You cannot vote in polls in this forum
You cannot attach files in this forum
You cannot download files in this forum