Дуэль / The Duel (Киран Дарси-Смит / Kieran Darcy-Smith) [2016, США, Драма, вестерн, HDRip] MVO (Paradox & Omskbird records)

Reply to topic
 
Author
Message

Satyr ®

Gender: Unknown

Longevity: 10 years

Posts: 12852

Reputation: 54 [+] [-]

Satyr · Post 11-Sep-2016 01:22

[Quote] 

Дуэль / The Duel
Страна: США
Жанр: драма, вестерн
Год выпуска: 2016
Продолжительность: 01:50:09
Перевод: Любительский (многоголосый, закадровый) Paradox & Omskbird records - без рекламы
Cубтитры: нет
Режиссер: Киран Дарси-Смит / Kieran Darcy-Smith
В ролях: Вуди Харрельсон, Лиам Хемсворт, Алиси Брага, Уильям Сэдлер, Эмори Коэн, Сью-Линн Ансари, Рафаэль Сбардж, Бенедикт Сэмюэл, Кристофер Берри, Керри Кехилл, Хосе Суньига, Дуглас М. Гриффин, Ким Хидальго, Фелисити Прайс, Сью Рок, Кристофер Джеймс Бэйкер, Джон МакКоннелл, Джиллз Мэттхи, Джейсон Картер, Лоуренс Тернер, Джош Уайтс, Келли Беллини, Дэвид Борн, Джимми Ли мл., Джонни МакПайл, Мэттью Фриас, Калеб Дж. Таггард
Описание: Фильм расскажет о техасском рейнджере Дэвиде, которого заслали во фронтир с целью расследования серии убийств. На месте ему предстоит познакомиться с Авраамом — проповедником, держащим в паническом страхе всю округу.
Релиз от Megapeer

Качество видео: HDRip
Формат видео: AVI
Видео: 688x288 (2.39:1), 23.976 fps, XviD build 73 ~813 kbps avg, 0.17 bit/pixel
Аудио: 48 kHz, MPEG Layer 3, 2 ch, ~128.00 kbps avg - Paradox & Omskbird records

MediaInfo

ОбщееПолное имя                               : D:\The.Duel.2016.HDRip.L.745MB.MegaPeer.aviФормат                                   : AVIФормат/Информация                        : Audio Video InterleaveРазмер файла                             : 746 МбайтПродолжительность                        : 1 ч. 50 м.Общий поток                              : 947 Кбит/сек
ВидеоИдентификатор : 0Формат : MPEG-4 VisualПрофиль формата : Advanced Simple@L5Параметр BVOP формата : 1Параметр QPel формата : НетПараметр GMC формата : Без точки переходаПараметр матрицы формата : ВыборочнаяИдентификатор кодека : XVIDИдентификатор кодека/Подсказка : XviDПродолжительность : 1 ч. 50 м.Битрейт : 813 Кбит/секШирина : 688 пикселейВысота : 288 пикселейСоотношение сторон : 2,40:1Частота кадров : 23,976 (24000/1001) кадра/секЦветовое пространство : YUVСубдискретизация насыщенности : 4:2:0Битовая глубина : 8 битТип развёртки : ПрогрессивнаяМетод сжатия : С потерямиБит/(Пиксели*Кадры) : 0.171Размер потока : 640 Мбайт (86%)Библиотека кодирования : XviD 73
АудиоИдентификатор : 1Формат : MPEG AudioВерсия формата : Version 1Профиль формата : Layer 3Режим : Joint stereoРасширение режима : MS StereoИдентификатор кодека : 55Идентификатор кодека/Подсказка : MP3Продолжительность : 1 ч. 50 м.Вид битрейта : ПостоянныйБитрейт : 128 Кбит/секКаналы : 2 каналаЧастота : 48,0 КГцМетод сжатия : С потерямиРазмер потока : 101 Мбайт (14%)Выравнивание : Соединение по промежуткамПродолжительность промежутка : 167 мс. (4,00 видеокадра)Время предзагрузки промежутка : 216 мс.Заголовок : Paradox & Omskbird recordsБиблиотека кодирования : LAME3.99rНастройки программы : -m j -V 4 -q 2 -lowpass 17 -b 128

Скриншоты

[Profile]  [PM] 
Display posts:    
Reply to topic

Current time is: 21-Apr 10:15

All times are UTC + 2



You cannot post new topics in this forum
You cannot reply to topics in this forum
You cannot edit your posts in this forum
You cannot delete your posts in this forum
You cannot vote in polls in this forum
You cannot attach files in this forum
You cannot download files in this forum