Случайно беременна / Joséphine s\'arrondit (Марилу Берри / Marilou Berry) [2016, Франция, комедия, HDRip] MVO (iTunes)

Reply to topic
 
Author
Message

Satyr ®

Gender: Unknown

Longevity: 10 years

Posts: 12852

Reputation: 54 [+] [-]

Satyr · Post 11-Sep-2016 01:22

[Quote] 

Случайно беременна / Joséphine s'arrondit
Страна: Франция
Жанр: комедия
Год выпуска: 2016
Продолжительность: 01:34:09
Перевод: Профессиональный (многоголосый закадровый) iTunes
Cубтитры: нет
Режиссер: Марилу Берри / Marilou Berry
В ролях: Марилу Берри, Мехди Неббу, Меди Садун, Сара Суко, Ванесса Гуид, Сирил Гуи, Жозиан Баласко, Патрик Брауде, Виктория Абриль, Каролин Англад
Описание: Продолжение приключений Жозефины и ее идеального мужчины продолжаются. По сюжету после событий первой части прошло два года. У пары все хорошо, но неожиданно героиня узнает, что они скоро станут родителями. Приоритеты на ближайшее время меняются: нужно не стать как ее мать, сохранить своего мужчину и стать, наконец, взрослой ответственной женщиной.
Сэмпл: http://multi-up.com/1113862
Качество видео: HDRip
Формат видео: AVI
Видео: 720x384 (1.88:1), 24 fps, XviD build 50 ~1818 kbps avg, 0.27 bit/pixel
Аудио: 48 kHz, AC3 Dolby Digital, 3/2 (L,C,R,l,r) + LFE ch, ~384 kbps

MediaInfo

General
Complete name : E:\Zona Downloads\Sluciaina.beremenna.2016.HDRip.1490MB-C!v.avi
Format : AVI
Format/Info : Audio Video Interleave
File size : 1.45 GiB
Duration : 1h 34mn
Overall bit rate : 2 212 Kbps
Writing application : VirtualDubMod 1.5.10.3 | www.virtualdub-fr.org || (build 2550/release)
Writing library : VirtualDubMod build 2550/release
Video
ID : 0
Format : MPEG-4 Visual
Format profile : Advanced Simple@L5
Format settings, BVOP : 2
Format settings, QPel : No
Format settings, GMC : No warppoints
Format settings, Matrix : Default (MPEG)
Codec ID : XVID
Codec ID/Hint : XviD
Duration : 1h 34mn
Bit rate : 1 819 Kbps
Width : 720 pixels
Height : 384 pixels
Display aspect ratio : 1.85:1
Frame rate : 24.000 fps
Color space : YUV
Chroma subsampling : 4:2:0
Bit depth : 8 bits
Scan type : Progressive
Compression mode : Lossy
Bits/(Pixel*Frame) : 0.274
Stream size : 1.20 GiB (82%)
Writing library : XviD 1.2.1 (UTC 2008-12-04)
Audio
ID : 1
Format : AC-3
Format/Info : Audio Coding 3
Mode extension : CM (complete main)
Format settings, Endianness : Big
Codec ID : 2000
Duration : 1h 34mn
Bit rate mode : Constant
Bit rate : 384 Kbps
Channel(s) : 6 channels
Channel positions : Front: L C R, Side: L R, LFE
Sampling rate : 48.0 KHz
Bit depth : 16 bits
Compression mode : Lossy
Stream size : 259 MiB (17%)
Alignment : Split accross interleaves
Interleave, duration : 42 ms (1.00 video frame)
Interleave, preload duration : 500 ms

Скриншот c названием фильма

Скриншоты

[Profile]  [PM] 
Display posts:    
Reply to topic

Current time is: 21-Apr 10:23

All times are UTC + 2



You cannot post new topics in this forum
You cannot reply to topics in this forum
You cannot edit your posts in this forum
You cannot delete your posts in this forum
You cannot vote in polls in this forum
You cannot attach files in this forum
You cannot download files in this forum