И грянул шторм / The Finest Hours (Крэйг Гиллеспи / Craig Gillespie) [2016, США, боевик, триллер, драма, история, BDRip] Dub [EUR]

Reply to topic
 
Author
Message

Satyr ®

Gender: Unknown

Longevity: 10 years

Posts: 12852

Reputation: 54 [+] [-]

Satyr · Post 11-Sep-2016 01:22

[Quote] 

И грянул шторм / The Finest Hours
Страна: США
Жанр: боевик, триллер, драма, история
Год выпуска: 2016
Продолжительность: 01:57:18
Перевод: Профессиональный (дублированный) [EUR]
Cубтитры: нет
Оригинальная аудиодорожка: нет-Режиссер: Крэйг Гиллеспи / Craig Gillespie-В ролях: Крис Пайн, Кейси Аффлек, Бен Фостер, Эрик Бана, Холлидей Грейнджер, Джон Ортис, Кайл Галлнер, Джон Магаро, Грэм МакТавиш, Майкл Рэймонд-Джеймс-Описание: Сюжет фильма основан на реальных событиях, произошедших в 1952 году, когда сотрудники береговой охраны в самый разгар шторма, используя деревянные моторные лодки, пытались спасти экипаж двух нефтяных танкеров.- -Качество видео: BDRip | BDRemux 1080p
Формат видео: AVI
Видео: 688x288 (2.39:1), 23.976 fps, XviD build 73 ~751 kbps avg, 0.16 bit/pixel
Аудио: 48 kHz, MPEG Layer 3, 2 ch, ~128.00 kbps avg- -

Знаете ли вы, что...

• Лодка CG 36500, спущенная на воду судном береговой охраны для спасения экипажа танкера «Пендлтон», до сих пор поддерживается в идеальном состоянии в Рок Харборе, Орлеан, штат Массачусетс.
• Полицейский автомобиль старой модели, использованный в фильме, одолжили у городской полиции Орлеана в штате Массачусетс.
• В 2011 году Береговая охрана США назвала 46-метровый высокоскоростной катер нового проекта в честь старшины шлюпки CG 36500 Бернарда Уэббера. Катера этого проекта стали первыми судами, которые называют в честь военнослужащих рядового и сержантского состава.
• Съёмки фильма проходили в основном в городе Чатем, штат Массачусетс.
• Бен Фостер и Эрик Бана сыграли «морских котиков» в фильме «Уцелевший» (2013), а Кайл Галлнер исполнил роль морского пехотинца в фильме «Снайпер» (2014).
• Крис Пайн и Эрик Бана вместе снялись в фильме «Звёздный путь» (2009).
• Крис Пайн и Холлидей Грейнджер уже снимались в фильмах студии «Disney», Пайн - в фильме «Чем дальше в лес...» (2014) и «Дневники принцессы 2: Как стать королевой» (2004), а Грейнджер - в «Золушке» (2015).
• Кейси Аффлек и Джош Стюарт вместе работали в фильме «Интерстеллар» (2014). Стюарт на экране не появлялся, но озвучивал робота КЕЙС.
• Кайл Галлнер и Майкл Реймонд-Джеймс снимались в популярном телесериале «Ходячие мертвецы» (2010) телеканала «AMC», однако в разных сезонах. Галлнер исполнял роль Зака в 4 сезоне, а Реймонд-Джеймс сыграл Дэйва во 2 сезоне.
• Кейси Аффлек и Бен Фостер вместе работали в фильме «В бегах» (2013).

MI

Format                      : AVI
Format/Info                 : Audio Video Interleave
File size                   : 746 MiB
Duration                    : 1h 57mn
Overall bit rate            : 889 Kbps
Writing application         : VirtualDubMod 1.5.10.3 | www.virtualdub-fr.org || (build 2550/release)
Writing library             : VirtualDubMod build 2550/release
Video
ID                          : 0
Format                      : MPEG-4 Visual
Format profile              : Advanced Simple@L5
Format settings, BVOP       : 1
Format settings, QPel       : No
Format settings, GMC        : No warppoints
Format settings, Matrix     : Custom
Codec ID                    : XVID
Codec ID/Hint               : XviD
Duration                    : 1h 57mn
Bit rate                    : 752 Kbps
Width                       : 688 pixels
Height                      : 288 pixels
Display aspect ratio        : 2.40:1
Frame rate                  : 23.976 (23976/1000) fps
Color space                 : YUV
Chroma subsampling          : 4:2:0
Bit depth                   : 8 bits
Scan type                   : Progressive
Compression mode            : Lossy
Bits/(Pixel*Frame)          : 0.158
Stream size                 : 631 MiB (85%)
Writing library             : XviD 73
Audio
ID                          : 1
Format                      : MPEG Audio
Format version              : Version 1
Format profile              : Layer 3
Codec ID                    : 55
Codec ID/Hint               : MP3
Duration                    : 1h 57mn
Bit rate mode               : Constant
Bit rate                    : 128 Kbps
Channel(s)                  : 2 channels
Sampling rate               : 48.0 KHz
Compression mode            : Lossy
Stream size                 : 107 MiB (14%)
Alignment                   : Aligned on interleaves
Interleave, duration        : 42 ms (1.00 video frame)
Interleave, preload duratio : 504 ms
Writing library             : LAME3.99r
Encoding settings           : -m s -V 4 -q 2 -lowpass 17 -b 128

Скриншоты

[Profile]  [PM] 
Display posts:    
Reply to topic

Current time is: 21-Apr 10:39

All times are UTC + 2



You cannot post new topics in this forum
You cannot reply to topics in this forum
You cannot edit your posts in this forum
You cannot delete your posts in this forum
You cannot vote in polls in this forum
You cannot attach files in this forum
You cannot download files in this forum