Сомния / Before I Wake (Майк Флэнеган / Mike Flanagan) [2016, США, ужасы, фэнтези, триллер, драма, BDRip-AVC] Dub + Original + Sub (eng)

Reply to topic
 
Author
Message

Satyr ®

Gender: Unknown

Longevity: 10 years

Posts: 12852

Reputation: 54 [+] [-]

Satyr · Post 11-Sep-2016 01:22

[Quote] 

Сомния / Before I Wake«Кошмары станут реальностью»- Страна: США
Жанр: ужасы, фэнтези, триллер, драма
Год выпуска: 2016
Продолжительность: 01:36:42
Перевод: Профессиональный (дублированный) (iTunes)
Оригинальная аудиодорожка: английский
Cубтитры:английские (полные)
Навигация по главам: есть
Режиссеры: Майк Флэнеган / Mike Flanagan
В ролях: Джейкоб Трамбле, Кейт Босворт, Томас Джейн, Скотти Томпсон, Аннабет Гиш, Дэш Майок, Джей Карнс, Кайла Дивер, Лэнс Э. Николс, Кортни Белл
Описание: У молодой пары, потерявшей маленького сына, появляется второй шанс на счастливую жизнь, когда они берут из приюта замечательного восьмилетнего Коди. По неизвестной им причине он очень боится засыпать по ночам, но вскоре оказывается, что дело в необычном даре Коди — пока он спит, его сны оживают. Каждую ночь новым родителям могут явиться либо прекрасные видения его воображения, либо леденящие душу порождения его кошмаров. И эти кошмары смертельно опасны.- -Качество видео: BDRip-AVC (исходник - BDRemux|BEFORE_I_WAKE_REMUX_HDCLUB)
Формат видео: MKV
Видео: x264, 1152x480 (2.40:1), 23,976 fps, ~1390 kbps, 0.105 bit/pixel
Аудио 1: 48 kHz, AC3 Dolby Digital, 3/2 (L,C,R,l,r) + LFE ch, ~384 kbps [русский]
Аудио 2: 48 kHz, AC3 Dolby Digital, 3/2 (L,C,R,l,r) + LFE ch, ~384 kbps [английский]
Формат субтитров: softsub (SRT)

MediaInfo | x264 log

Format : Matroska
Format version : Version 4 / Version 2
File size : 1.46 GiB
Duration : 1h 36mn
Overall bit rate : 2 158 Kbps
Movie name : Сомния / Before I Wake (2016) :: AFM ::
Encoded date : UTC 2016-08-12 12:03:09
Writing application : mkvmerge v8.3.0 ('Over the Horizon') 32bit
Writing library : libebml v1.3.1 + libmatroska v1.4.2
Video
ID : 1
Format : AVC
Format/Info : Advanced Video Codec
Format profile : High@L4.1
Format settings, CABAC : Yes
Format settings, ReFrames : 10 frames
Codec ID : V_MPEG4/ISO/AVC
Duration : 1h 36mn
Bit rate : 1 390 Kbps
Width : 1 152 pixels
Height : 480 pixels
Display aspect ratio : 2.40:1
Frame rate mode : Constant
Frame rate : 23.976 fps
Color space : YUV
Chroma subsampling : 4:2:0
Bit depth : 8 bits
Scan type : Progressive
Bits/(Pixel*Frame) : 0.105
Stream size : 932 MiB (62%)
Title : BDRip by AFM [torrentsland.com.ua]
Writing library : x264 core 148 r2705+54 9f484c1 t_mod_Custom [8-bit@all X86_64]
Encoding settings : cabac=1 / ref=10 / deblock=1:-3:-2 / analyse=0x3:0x113 / me=umh / subme=10 / psy=1 / fade_compensate=0.00 / psy_rd=1.00:0.00 / mixed_ref=1 / me_range=32 / chroma_me=1 / trellis=2 / 8x8dct=1 / cqm=0 / deadzone=21,11 / fast_pskip=0 / chroma_qp_offset=-2 / threads=6 / lookahead_threads=1 / sliced_threads=0 / nr=0 / decimate=0 / interlaced=0 / bluray_compat=0 / constrained_intra=0 / fgo=0 / bframes=13 / b_pyramid=2 / b_adapt=2 / b_bias=0 / direct=3 / weightb=1 / open_gop=0 / weightp=2 / keyint=250 / keyint_min=23 / scenecut=40 / intra_refresh=0 / rc_lookahead=40 / rc=2pass / mbtree=0 / bitrate=1390 / ratetol=1.0 / qcomp=0.65 / qpmin=0:0:0 / qpmax=69:69:69 / qpstep=4 / cplxblur=20.0 / qblur=0.5 / vbv_maxrate=50000 / vbv_bufsize=62500 / nal_hrd=none / filler=0 / ip_ratio=1.30 / pb_ratio=1.25 / aq=3:0.80 / aq-sensitivity=10.00 / aq-factor=1.00:1.00:1.00 / aq2=0 / aq3=0
Language : English
Default : Yes
Forced : No
Audio #1
ID : 2
Format : AC-3
Format/Info : Audio Coding 3
Mode extension : CM (complete main)
Format settings, Endianness : Big
Codec ID : A_AC3
Duration : 1h 36mn
Bit rate mode : Constant
Bit rate : 384 Kbps
Channel(s) : 6 channels
Channel positions : Front: L C R, Side: L R, LFE
Sampling rate : 48.0 KHz
Compression mode : Lossy
Stream size : 266 MiB (18%)
Title : Dub, AC3 5.1 ~384 kbps
Language : Russian
Default : Yes
Forced : No
Audio #2
ID : 3
Format : AC-3
Format/Info : Audio Coding 3
Mode extension : CM (complete main)
Format settings, Endianness : Big
Codec ID : A_AC3
Duration : 1h 36mn
Bit rate mode : Constant
Bit rate : 384 Kbps
Channel(s) : 6 channels
Channel positions : Front: L C R, Side: L R, LFE
Sampling rate : 48.0 KHz
Compression mode : Lossy
Stream size : 266 MiB (18%)
Title : Original, AC3 5.1 ~384 kbps
Language : English
Default : No
Forced : No
Text
ID : 4
Format : UTF-8
Codec ID : S_TEXT/UTF8
Codec ID/Info : UTF-8 Plain Text
Language : English
Default : No
Forced : No
Menu
00:00:00.000 : en:Chapter 01
00:02:08.877 : en:Chapter 02
00:09:05.543 : en:Chapter 03
00:13:10.163 : en:Chapter 04
00:24:22.711 : en:Chapter 05
00:30:44.342 : en:Chapter 06
00:43:21.974 : en:Chapter 07
00:51:13.695 : en:Chapter 08
01:01:56.210 : en:Chapter 09
01:11:19.274 : en:Chapter 10
01:24:52.587 : en:Chapter 11
01:31:22.975 : en:Chapter 12
01:36:41.752 : en:Chapter 13

x264

x264 [info]: frame I:48 Avg QP:12.30 size: 58141
x264 [info]: frame P:461 Avg QP:15.84 size: 17711
x264 [info]: frame B:1994 Avg QP:17.44 size: 3583
x264 [info]: consecutive B-frames: 3.1% 1.5% 5.2% 13.4% 8.6% 29.7% 10.9% 16.3% 7.6% 0.8% 0.4% 1.4% 0.5% 0.6%
x264 [info]: mb I I16..4: 12.4% 69.9% 17.8%
x264 [info]: mb P I16..4: 1.6% 7.4% 1.6% P16..4: 39.1% 25.9% 15.3% 0.0% 0.0% skip: 9.1%
x264 [info]: mb B I16..4: 0.0% 0.2% 0.0% B16..8: 34.8% 8.3% 1.7% direct: 2.5% skip:52.5% L0:41.7% L1:50.2% BI: 8.1%
x264 [info]: 8x8 transform intra:70.0% inter:56.3%
x264 [info]: direct mvs spatial:97.8% temporal:2.2%
x264 [info]: coded y,uvDC,uvAC intra: 80.9% 73.9% 58.5% inter: 11.3% 10.7% 4.6%
x264 [info]: i16 v,h,dc,p: 47% 9% 11% 33%
x264 [info]: i8 v,h,dc,ddl,ddr,vr,hd,vl,hu: 12% 9% 8% 10% 12% 12% 12% 12% 13%
x264 [info]: i4 v,h,dc,ddl,ddr,vr,hd,vl,hu: 11% 8% 4% 13% 15% 13% 12% 12% 13%
x264 [info]: i8c dc,h,v,p: 43% 26% 19% 11%
x264 [info]: Weighted P-Frames: Y:2.6% UV:0.9%
x264 [info]: ref P L0: 56.1% 5.7% 17.0% 6.9% 4.8% 3.4% 2.7% 1.4% 1.0% 1.0% 0.0%
x264 [info]: ref B L0: 74.1% 12.9% 5.9% 2.5% 2.0% 1.2% 0.9% 0.3% 0.1%
x264 [info]: ref B L1: 92.7% 7.3%
x264 [info]: kb/s:1386.98

Скриншоты

с названием

[Profile]  [PM] 
Display posts:    
Reply to topic

Current time is: 21-Apr 11:04

All times are UTC + 2



You cannot post new topics in this forum
You cannot reply to topics in this forum
You cannot edit your posts in this forum
You cannot delete your posts in this forum
You cannot vote in polls in this forum
You cannot attach files in this forum
You cannot download files in this forum