Славные парни / The Nice Guys (Шейн Блэк / Shane Black) [2016, США, Криминал, комедия, HDRip] Dub (iTunes) + Original + Subs (rus,eng)

Reply to topic
 
Author
Message

Satyr ®

Gender: Unknown

Longevity: 10 years

Posts: 13513

Reputation: 54 [+] [-]

Satyr · Post 11-Sep-2016 01:22

[Quote] 

Славные парни / The Nice Guys
Страна: США, Великобритания
Жанр: криминал, комедия
Год выпуска: 2016
Продолжительность: 01:55:57
Перевод: Профессиональный (дублированный) - (iTunes)
Cубтитры: Русские (полные), Английские (полные)
Оригинальная аудиодорожка: Англиский
Режиссер: Шейн Блэк / Shane Black
В ролях: Райан Гослинг, Ким Бейсингер, Расселл Кроу, Энгаури Райс, Мэтт Бомер, Маргарет Куэлли, Йайа ДаКоста, Кит Дэвид, Бо Напп, Лоис Смит
Описание: Что бывает, когда напарником брутального костолома становится субтильный лопух? Наемный охранник Джексон Хили и частный детектив Холланд Марч вынуждены работать в паре, чтобы распутать плевое дело о пропавшей девушке, которое оборачивается преступлением века.
Смогут ли парни разгадать сложный ребус, если у каждого из них — свои, весьма индивидуальные методы…
Сэмпл: http://multi-up.com/1113164
Качество видео: HDRip
Исходник: [The.Nice.Guys.2016.D.BDRip.1080p.ExKinoRay]
Формат видео: AVI
Видео: 720x304 (2.37:1), 23.976 fps, XviD build 65 ~2252 kbps avg, 0.43 bit/pixel
Аудио RUS: 48 kHz, AC3 Dolby Digital, 3/2 (L,C,R,l,r) + LFE ch, ~384 kbps
Аудио ENG: 48 kHz, AC3 Dolby Digital, 3/2 (L,C,R,l,r) + LFE ch, ~448 kbps
Формат субтитров: softsub (SRT)
Rip by Ториял для

MediaInfo

General
Complete name : D:\Фильмы\Новая папка\The Nice Guys_2016_Toriyal_Rutracker.avi
Format : AVI
Format/Info : Audio Video Interleave
Format profile : OpenDML
File size : 2.14 GiB
Duration : 1h 55mn
Overall bit rate : 2 643 Kbps
Writing application : VirtualDubMod 1.5.10.3 | www.virtualdub-fr.org || (build 2550/release)
Writing library : VirtualDubMod build 2550/release
Video
ID : 0
Format : MPEG-4 Visual
Format profile : Advanced Simple@L5
Format settings, BVOP : 1
Format settings, QPel : No
Format settings, GMC : No warppoints
Format settings, Matrix : Custom
Codec ID : XVID
Codec ID/Hint : XviD
Duration : 1h 55mn
Bit rate : 2 248 Kbps
Width : 720 pixels
Height : 304 pixels
Display aspect ratio : 2.35:1
Frame rate : 23.976 (23976/1000) fps
Color space : YUV
Chroma subsampling : 4:2:0
Bit depth : 8 bits
Scan type : Progressive
Compression mode : Lossy
Bits/(Pixel*Frame) : 0.428
Stream size : 1.82 GiB (85%)
Writing library : XviD 65
Audio
ID : 1
Format : AC-3
Format/Info : Audio Coding 3
Mode extension : CM (complete main)
Format settings, Endianness : Big
Codec ID : 2000
Duration : 1h 55mn
Bit rate mode : Constant
Bit rate : 384 Kbps
Channel(s) : 6 channels
Channel positions : Front: L C R, Side: L R, LFE
Sampling rate : 48.0 KHz
Frame rate : 31.250 fps (1536 spf)
Compression mode : Lossy
Stream size : 318 MiB (15%)
Alignment : Split accross interleaves
Interleave, duration : 42 ms (1.00 video frame)
Interleave, preload duratio : 500 ms

Скриншоты

[Profile]  [PM] 
Display posts:    
Reply to topic

Current time is: 17-Jul 12:56

All times are UTC + 2



You cannot post new topics in this forum
You cannot reply to topics in this forum
You cannot edit your posts in this forum
You cannot delete your posts in this forum
You cannot vote in polls in this forum
You cannot attach files in this forum
You cannot download files in this forum