Книга джунглей / The Jungle Book (Джон Фавро / Jon Favreau) [2016, Великобритания, Фэнтези, драма, приключения, семейный, HDRip] Dub (iTunes)

Reply to topic
 
Author
Message

Satyr ®

Gender: Unknown

Longevity: 10 years

Posts: 12852

Reputation: 54 [+] [-]

Satyr · Post 11-Sep-2016 01:22

[Quote] 

Книга джунглей / The Jungle Book
Страна: Великобритания, США
Жанр: фэнтези, драма, приключения, семейный
Год выпуска: 2016
Продолжительность: 01:45:54
Перевод: Профессиональный (дублированный) iTunes
Cубтитры: Русские форсированные (скачать отдельно)
Режиссер: Джон Фавро / Jon Favreau
В ролях: Нил Сети, Билл Мюррэй, Бен Кингсли, Идрис Эльба, Лупита Нионго, Скарлетт Йоханссон, Джанкарло Эспозито, Кристофер Уокен, Гарри Шендлинг, Брайтон Роуз, Эмджей Энтони, Макс Фавро, Хлоя Хехтер, Эшер Блинкофф, Нокс Ганьон, Саша Шрайбер, Кай Шрайбер, Джон Фавро, Сэм Рэйми, Расселл Питерс
Описание: Эта удивительная история повествует о маленьком мальчике, которого вырастили в глухом лесу говорящие животные. Он воспитывался в волчьей стае и постигал законы джунглей под присмотром мудрой пантеры Багиры. Однако, всевозрастающая угроза со стороны тигра Шерхана вынуждает его покинуть родной дом и отправиться в ближайшую деревню к людям. Ему предстоит пройти длинный путь к познанию своего прошлого, преисполненный опасными приключениями и захватывающими встречами с медведем Балу, питоном Каа, обезьяним королем Луи и другими лесными жителями.
Релиз от Megapeer

Качество видео: HDRip
Формат видео: AVI
Видео: 624x336 (1.86:1), 23.976 fps, XviD build 73 ~850 kbps avg, 0.17 bit/pixel
Аудио: 48 kHz, MPEG Layer 3, 2 ch, ~128.00 kbps avg

MediaInfo

ОбщееПолное имя                               : D:\The.Jungle.Book.2016.HDRip.745MB.MegaPeer.aviФормат                                   : AVIФормат/Информация                        : Audio Video InterleaveРазмер файла                             : 745 МбайтПродолжительность                        : 1 ч. 45 м.Общий поток                              : 983 Кбит/сек
ВидеоИдентификатор : 0Формат : MPEG-4 VisualПрофиль формата : Advanced Simple@L5Параметр BVOP формата : 1Параметр QPel формата : НетПараметр GMC формата : Без точки переходаПараметр матрицы формата : ВыборочнаяИдентификатор кодека : XVIDИдентификатор кодека/Подсказка : XviDПродолжительность : 1 ч. 45 м.Битрейт : 850 Кбит/секШирина : 624 пикселяВысота : 336 пикселейСоотношение сторон : 1,85:1Частота кадров : 23,976 (24000/1001) кадра/секЦветовое пространство : YUVСубдискретизация насыщенности : 4:2:0Битовая глубина : 8 битТип развёртки : ПрогрессивнаяМетод сжатия : С потерямиБит/(Пиксели*Кадры) : 0.169Размер потока : 644 Мбайт (86%)Библиотека кодирования : XviD 73
АудиоИдентификатор : 1Формат : MPEG AudioВерсия формата : Version 1Профиль формата : Layer 3Режим : Joint stereoРасширение режима : MS StereoИдентификатор кодека : 55Идентификатор кодека/Подсказка : MP3Продолжительность : 1 ч. 45 м.Вид битрейта : ПостоянныйБитрейт : 128 Кбит/секКаналы : 2 каналаЧастота : 48,0 КГцМетод сжатия : С потерямиРазмер потока : 97,0 Мбайт (13%)Выравнивание : Соединение по промежуткамПродолжительность промежутка : 167 мс. (4,00 видеокадра)Время предзагрузки промежутка : 216 мс.Заголовок : iTunesБиблиотека кодирования : LAME3.99rНастройки программы : -m j -V 4 -q 2 -lowpass 17 -b 128

Скриншоты

[Profile]  [PM] 
Display posts:    
Reply to topic

Current time is: 21-Apr 11:07

All times are UTC + 2



You cannot post new topics in this forum
You cannot reply to topics in this forum
You cannot edit your posts in this forum
You cannot delete your posts in this forum
You cannot vote in polls in this forum
You cannot attach files in this forum
You cannot download files in this forum