Сомния / Before I Wake (Майк Флэнеган / Mike Flanagan) [2016, США, Ужасы, фэнтези, триллер, драма, HDRip] Dub (iTunes)

Reply to topic
 
Author
Message

Satyr ®

Gender: Unknown

Longevity: 10 years

Posts: 12858

Reputation: 54 [+] [-]

Satyr · Post 11-Sep-2016 01:22

[Quote] 

Сомния / Before I Wake

«Кошмары станут реальностью»
Страна: США
Жанр: Ужасы, фэнтези, триллер, драма
Год выпуска: 2016
Продолжительность: 01:36:41

Перевод: Профессиональный (дублированный) - iTunes
Cубтитры: нет
Режиссер: Майк Флэнеган / Mike Flanagan
В ролях: Джейкоб Трамбле, Кейт Босворт, Томас Джейн, Скотти Томпсон, Аннабет Гиш, Дэш Майок, Джей Карнс, Кайла Дивер, Лэнс Э. Николс, Кортни Белл
Описание: У молодой пары, потерявшей маленького сына, появляется второй шанс на счастливую жизнь, когда они берут из приюта замечательного восьмилетнего Коди. По неизвестной им причине он очень боится засыпать по ночам, но вскоре оказывается, что дело в необычном даре Коди — пока он спит, его сны оживают. Каждую ночь новым родителям могут явиться либо прекрасные видения его воображения, либо леденящие душу порождения его кошмаров. И эти кошмары смертельно опасны.

Качество видео: HDRip
Формат видео: AVI
Видео: 720x304 (2.35:1), 23.976 fps, XviD build 50, 1632 Kbps
Аудио: 48 kHz, AC3 Dolby Digital, 3/2 (L,C,R,l,r) + LFE ch, 384 Kbps

MediaInfo

General
Complete name : Downloads\Somnia.2O16.HDRip.avi
Format : AVI
Format/Info : Audio Video Interleave
File size : 1.37 GiB
Duration : 1h 36mn
Overall bit rate : 2 025 Kbps
Writing application : VirtualDubMod 1.5.10.2 (build 2540/release)
Writing library : VirtualDubMod build 2540/release
Video #0
ID : 0
Format : MPEG-4 Visual
Format profile : Advanced Simple@L5
Format settings, BVOP : 2
Format settings, QPel : No
Format settings, GMC : No warppoints
Format settings, Matrix : Custom
Codec ID : XVID
Codec ID/Hint : XviD
Duration : 1h 36mn
Bit rate : 1 632 Kbps
Width : 720 pixels
Height : 304 pixels
Display aspect ratio : 2.35:1
Frame rate : 23.976 fps
Color space : YUV
Chroma subsampling : 4:2:0
Bit depth : 8 bits
Scan type : Progressive
Compression mode : Lossy
Bits/(Pixel*Frame) : 0.311
Stream size : 1.10 GiB (81%)
Writing library : XviD 1.2.1 (UTC 2008-12-04)
Audio #1
ID : 1
Format : AC-3
Format/Info : Audio Coding 3
Mode extension : CM (complete main)
Format settings, Endianness : Big
Codec ID : 2000
Duration : 1h 36mn
Bit rate mode : Constant
Bit rate : 384 Kbps
Channel(s) : 6 channels
Channel positions : Front: L C R, Side: L R, LFE
Sampling rate : 48.0 KHz
Bit depth : 16 bits
Compression mode : Lossy
Stream size : 266 MiB (19%)
Alignment : Split accross interleaves
Interleave, duration : 42 ms (1.00 video frame)
Interleave, preload duration : 500 ms

Скриншот c названием фильма

Скриншоты

[Profile]  [PM] 
Display posts:    
Reply to topic

Current time is: 22-Apr 17:56

All times are UTC + 2



You cannot post new topics in this forum
You cannot reply to topics in this forum
You cannot edit your posts in this forum
You cannot delete your posts in this forum
You cannot vote in polls in this forum
You cannot attach files in this forum
You cannot download files in this forum