Белоснежка и Охотник 2 / The Huntsman: Winter\'s War (Седрик Николя-Троян / Cedric Nicolas-Troyan) [2016, США, фэнтези, драма, приключения, BDRip-AVC] [Расширенная версия / Extended Cut] Dub

Reply to topic
 
Author
Message

Satyr ®

Gender: Unknown

Longevity: 10 years

Posts: 12852

Reputation: 54 [+] [-]

Satyr · Post 11-Sep-2016 01:22

[Quote] 

Белоснежка и Охотник 2 / The Huntsman: Winter's WarРасширенная версия«The story before Snow White»- Страна: США
Жанр: фэнтези, боевик, драма, приключения
Год выпуска: 2016
Продолжительность: 02:00:10
Перевод: Профессиональный (дублированный) (BD EUR)
Оригинальная аудиодорожка: нет
Cубтитры: нет
Навигация по главам: есть
Режиссер: Седрик Николя-Троян / Cedric Nicolas-Troyan
В ролях: Крис Хемсворт, Шарлиз Терон, Джессика Честейн, Эмили Блант, Ник Фрост, Роб Брайдон, Шеридан Смит, Александра Роуч, Сопе Дирису, Сэм Хэзелдайн
Описание: Когда любовь уходит, сердце прекрасной девы обращается в лед. И даже сотни королевств не смогут сдержать поступь ее несметного воинства. Лишь Охотник не ведает страха. Сквозь проклятый лес он идет навстречу своей судьбе.- -Качество видео: BDRip-AVC (исходник - BDRemux|The.Huntsman.Winters.War.2016.EXTENDED.1080p.BluRay.REMUX.AVC.DTS-HD.MA.7.1-FGT)
Формат видео: MKV
Видео: x264, 912х382 (2.40:1), 23,976 fps, ~1355 kbps, 0.162 bit/pixel
Аудио: 48 kHz, AC3 Dolby Digital, 3/2 (L,C,R,l,r) + LFE ch, ~384 kbps

MediaInfo | x264 log

Format : Matroska
Format version : Version 4 / Version 2
File size : 1.46 GiB
Duration : 2h 0mn
Overall bit rate : 1 740 Kbps
Movie name : Белоснежка и Охотник 2 / The Huntsman: Winter's War (2016) [Extended Cut] :: AFM ::
Encoded date : UTC 2016-08-08 14:37:06
Writing application : mkvmerge v8.3.0 ('Over the Horizon') 32bit
Writing library : libebml v1.3.1 + libmatroska v1.4.2
Video
ID : 1
Format : AVC
Format/Info : Advanced Video Codec
Format profile : High@L4.1
Format settings, CABAC : Yes
Format settings, ReFrames : 10 frames
Codec ID : V_MPEG4/ISO/AVC
Duration : 2h 0mn
Bit rate : 1 355 Kbps
Width : 912 pixels
Height : 382 pixels
Display aspect ratio : 2.40:1
Frame rate mode : Constant
Frame rate : 23.976 fps
Color space : YUV
Chroma subsampling : 4:2:0
Bit depth : 8 bits
Scan type : Progressive
Bits/(Pixel*Frame) : 0.162
Stream size : 1.11 GiB (76%)
Title : BDRip by AFM [torrentsland.com.ua]
Writing library : x264 core 148 r2705+45 bdacf7a 7mod [8-bit@all X86_64]
Encoding settings : cabac=1 / ref=10 / deblock=1:-2:-2 / analyse=0x3:0x113 / me=umh / subme=10 / psy=1 / fade_compensate=0.00 / psy_rd=1.00:0.00 / mixed_ref=1 / me_range=32 / chroma_me=1 / trellis=2 / 8x8dct=1 / cqm=0 / deadzone=21,11 / fast_pskip=0 / chroma_qp_offset=-2 / threads=6 / lookahead_threads=1 / sliced_threads=0 / nr=0 / decimate=0 / interlaced=0 / bluray_compat=0 / constrained_intra=0 / fgo=0 / bframes=13 / b_pyramid=2 / b_adapt=2 / b_bias=0 / direct=3 / weightb=1 / open_gop=0 / weightp=2 / keyint=250 / keyint_min=23 / scenecut=40 / intra_refresh=0 / rc_lookahead=40 / rc=2pass / mbtree=0 / bitrate=1355 / ratetol=1.0 / qcomp=0.65 / qpmin=0:0:0 / qpmax=69:69:69 / qpstep=4 / cplxblur=20.0 / qblur=0.5 / vbv_maxrate=50000 / vbv_bufsize=62500 / nal_hrd=none / filler=0 / ip_ratio=1.30 / pb_ratio=1.25 / aq=4:0.90 / aq-sensitivity=10.00 / aq-factor=1.00:1.00:1.00 / aq2=0 / aq3=0
Language : English
Default : Yes
Forced : No
Audio
ID : 2
Format : AC-3
Format/Info : Audio Coding 3
Mode extension : CM (complete main)
Format settings, Endianness : Big
Codec ID : A_AC3
Duration : 2h 0mn
Bit rate mode : Constant
Bit rate : 384 Kbps
Channel(s) : 6 channels
Channel positions : Front: L C R, Side: L R, LFE
Sampling rate : 48.0 KHz
Compression mode : Lossy
Stream size : 330 MiB (22%)
Title : Dub, AC3 5.1 ~384 kbps
Language : Russian
Default : Yes
Forced : No
Menu
00:00:00.000 : en:Chapter 01
00:06:26.428 : en:Chapter 02
00:09:26.858 : en:Chapter 03
00:15:03.194 : en:Chapter 04
00:21:33.501 : en:Chapter 05
00:30:17.858 : en:Chapter 06
00:36:08.166 : en:Chapter 07
00:40:55.661 : en:Chapter 08
00:46:56.439 : en:Chapter 09
00:52:05.748 : en:Chapter 10
00:59:35.530 : en:Chapter 11
01:04:23.943 : en:Chapter 12
01:11:16.689 : en:Chapter 13
01:15:19.223 : en:Chapter 14
01:22:42.833 : en:Chapter 15
01:28:15.206 : en:Chapter 16
01:33:58.007 : en:Chapter 17
01:39:21.956 : en:Chapter 18
01:48:13.904 : en:Chapter 19
01:50:19.571 : en:Chapter 20

x264

x264 [info]: frame I:1457 Avg QP:16.47 size: 50392
x264 [info]: frame P:37979 Avg QP:19.61 size: 14906
x264 [info]: frame B:133441 Avg QP:21.34 size: 4356
x264 [info]: consecutive B-frames: 2.4% 2.7% 8.0% 20.7% 21.5% 33.8% 4.6% 1.6% 1.3% 0.8% 0.8% 0.9% 0.5% 0.5%
x264 [info]: mb I I16..4: 4.6% 75.4% 20.0%
x264 [info]: mb P I16..4: 0.8% 8.4% 1.6% P16..4: 40.7% 27.4% 15.1% 0.0% 0.0% skip: 6.1%
x264 [info]: mb B I16..4: 0.0% 0.6% 0.2% B16..8: 38.3% 10.4% 3.0% direct: 5.1% skip:42.4% L0:42.3% L1:44.0% BI:13.7%
x264 [info]: 8x8 transform intra:76.5% inter:57.1%
x264 [info]: direct mvs spatial:97.0% temporal:3.0%
x264 [info]: coded y,uvDC,uvAC intra: 87.7% 73.3% 42.4% inter: 22.2% 11.5% 3.9%
x264 [info]: i16 v,h,dc,p: 36% 12% 10% 41%
x264 [info]: i8 v,h,dc,ddl,ddr,vr,hd,vl,hu: 9% 7% 5% 9% 15% 15% 14% 12% 13%
x264 [info]: i4 v,h,dc,ddl,ddr,vr,hd,vl,hu: 8% 6% 4% 10% 17% 16% 15% 12% 14%
x264 [info]: i8c dc,h,v,p: 38% 27% 19% 16%
x264 [info]: Weighted P-Frames: Y:97.5% UV:3.1%
x264 [info]: ref P L0: 52.2% 14.1% 13.5% 5.4% 4.3% 3.1% 2.7% 1.5% 1.5% 1.4% 0.2% 0.0%
x264 [info]: ref B L0: 75.5% 10.9% 5.1% 2.7% 1.9% 1.7% 1.2% 0.7% 0.2%
x264 [info]: ref B L1: 94.2% 5.8%
x264 [info]: kb/s:1354.50

Скриншоты

с названием

[Profile]  [PM] 
Display posts:    
Reply to topic

Current time is: 21-Apr 10:20

All times are UTC + 2



You cannot post new topics in this forum
You cannot reply to topics in this forum
You cannot edit your posts in this forum
You cannot delete your posts in this forum
You cannot vote in polls in this forum
You cannot attach files in this forum
You cannot download files in this forum