Боги Египта / Gods of Egypt (Алекс Пройас / Alex Proyas) [2016, США, фэнтези, боевик, приключения, HDRip-AVC] Dub

Reply to topic
 
Author
Message

Satyr ®

Gender: Unknown

Longevity: 10 years

Posts: 12858

Reputation: 54 [+] [-]

Satyr · Post 11-Sep-2016 01:22

[Quote] 

Боги Египта
Gods of Egypt
- Год выпуска: 2016
Страна: США
Жанр: фэнтези, боевик, приключения
Продолжительность: 2:07:02
Перевод: Профессиональный (дублированный)
Субтитры: нет-Режиссер: Алекс Пройас / Alex Proyas-В ролях: Джерард Батлер, Николай Костер-Вальдау, Брентон Туэйтс, Чэдвик Боузман, Руфус Сьюэлл, Джон Самаха, Кортни Итон, Паула Арунделл, Алиа Серор-О’Нилл, Эмили Уитон, Элоди Юнг, Рэйчел Блэйк, Брайан Браун, Майкл-Энтони Тейлор, Эмма Бут, Феликс Уильямсон, Александр Инглэнд, Йен Робертс, Горан Д’Клюе, Йайа Ден.-Описание: Некогда мирное и процветающее египетское царство погружается в хаос: беспощадный бог тьмы Сет убивает своего брата Осириса и узурпирует трон. Вызов ему неожиданно бросает простой смертный, находчивый молодой вор. Чтобы вернуть к жизни свою прекрасную возлюбленную, ему приходится заручиться поддержкой могущественного и мстительного бога Гора. Лишь выдержав испытание на прочность и принеся в жертву все самое дорогое, им удастся противостоять Сету и его приспешникам в мире живых и мире мертвых.-«Боги Египта» (англ. Gods of Egypt) — приключенческий фантастический фильм по мотивам мифологии Древнего Египта, снятый Алексом Пройасом, с Джерардом Батлером, Джеффри Рашем и Николаем Костером-Вальдау в главных ролях.-Качество видео: HDRip-AVC
Формат видео: MKV | Sample
Видео: 768x320 (2.40:1), 23.976 fps, x264@L4.1 ~749 kbps avg, 0.13 bit/pixel
Аудио: 48/24 kHz, AAC-HE, (L,R) 3, 2 ch, ~72.00 kbps avg

Инфо

Формат : Matroska
Версия формата : Version 4 / Version 2
Размер файла : 742 Мбайт
Продолжительность : 2 ч. 7 м.
Общий поток : 817 Кбит/сек
Название фильма : Gods of Egypt 2016
Дата кодирования : UTC 2016-08-05 18:09:59
Программа кодирования : mkvmerge v9.1.0 ('Little Earthquakes') 32bit
Библиотека кодирования : libebml v1.3.3 + libmatroska v1.4.4
Видео
Идентификатор : 1
Формат : AVC
Формат/Информация : Advanced Video Codec
Профиль формата : High@L4.1
Параметр CABAC формата : Да
Параметр ReFrames формата : 9 кадров
Идентификатор кодека : V_MPEG4/ISO/AVC
Продолжительность : 2 ч. 7 м.
Битрейт : 749 Кбит/сек
Ширина : 768 пикселей
Высота : 320 пикселей
Соотношение сторон : 2,40:1
Режим частоты кадров : Постоянный
Частота кадров : 23,976 (24000/1001) кадра/сек
Частота кадров в оригинале : 23,976 (23976/1000) кадра/сек
Цветовое пространство : YUV
Субдискретизация насыщенности : 4:2:0
Битовая глубина : 8 бит
Тип развёртки : Прогрессивная
Бит/(Пиксели*Кадры) : 0.127
Размер потока : 675 Мбайт (91%)
Заголовок : HDRip-AVC
Библиотека кодирования : x264 core 130 r2273 b3065e6
Настройки программы : cabac=1 / ref=9 / deblock=1:-2:-2 / analyse=0x3:0x113 / me=umh / subme=10 / psy=1 / psy_rd=1.00:0.15 / mixed_ref=1 / me_range=32 / chroma_me=1 / trellis=2 / 8x8dct=1 / cqm=0 / deadzone=21,11 / fast_pskip=1 / chroma_qp_offset=-3 / threads=2 / lookahead_threads=1 / sliced_threads=0 / nr=0 / decimate=0 / interlaced=0 / bluray_compat=0 / constrained_intra=0 / bframes=8 / b_pyramid=2 / b_adapt=2 / b_bias=0 / direct=3 / weightb=1 / open_gop=0 / weightp=2 / keyint=240 / keyint_min=25 / scenecut=40 / intra_refresh=0 / rc=2pass / mbtree=0 / bitrate=749 / ratetol=1.0 / qcomp=0.60 / qpmin=0 / qpmax=69 / qpstep=4 / cplxblur=20.0 / qblur=0.5 / ip_ratio=1.40 / pb_ratio=1.30 / aq=1:1.00
Язык : English
Default : Да
Forced : Нет
Аудио
Идентификатор : 2
Формат : AAC
Формат/Информация : Advanced Audio Codec
Профиль формата : HE-AAC / LC
Идентификатор кодека : A_AAC
Продолжительность : 2 ч. 7 м.
Битрейт : 72,0 Кбит/сек
Каналы : 2 канала
Расположение каналов : Front: L R
Частота : 48,0 КГц / 24,0 КГц
Частота кадров : 23,438 кадра/сек (1024 spf)
Метод сжатия : С потерями
Размер потока : 65,4 Мбайт (9%)
Заголовок : Dub
Язык : Russian
Default : Да
Forced : Нет

Скриншоты

[Profile]  [PM] 
Display posts:    
Reply to topic

Current time is: 22-Apr 18:45

All times are UTC + 2



You cannot post new topics in this forum
You cannot reply to topics in this forum
You cannot edit your posts in this forum
You cannot delete your posts in this forum
You cannot vote in polls in this forum
You cannot attach files in this forum
You cannot download files in this forum