Пеле: Рождение легенды / Pelé: Birth of a Legend (Джефф Цимбалист, Майкл Цимбалист / Michael Zimbalist, Jeff Zimbalist) [2016, США, Драма, биография, спорт, HDRip] Dub (iTunes)

Reply to topic
 
Author
Message

Satyr ®

Gender: Unknown

Longevity: 15 years

Posts: 22031

Reputation: 56 [+] [-]

Satyr · Post 11-Sep-2016 01:22

[Quote] 

Пеле: Рождение легенды / Pelé: Birth of a Legend
Страна: США
Жанр: Драма, биография, спорт
Год выпуска: 2016
Продолжительность: 01:47:05
Перевод: Профессиональный (дублированный) iTunes
Cубтитры: нет
Режиссер: Джефф Цимбалист, Майкл Цимбалист / Michael Zimbalist, Jeff Zimbalist
В ролях: Винсент Д`Онофрио, Родриго Санторо, Диего Бонета, Колм Мини, Сеу Жоржи, Андре Маттос, Свен Холмберг
Описание: Биографическая драма расскажет о закулисье спорта, в частности о жизни величайшего игрока в истории футбола — Пеле. Зрители станут свидетелями непростой жизни бразильской легенды спорта. Сколько преград тому удалось преодолеть на своем пути, чтобы добиться мировой популярности? Это сейчас он демонстрирует невероятные профессиональные достижения и вдобавок ко всему не забывает о благородных делах, но раньше все было по-другому. С ранних лет Пеле жаждал получить признание, неустанно шел к своей мечте, преодолевая препятствия, тем самым закаляя свой характер. Картина охватывает детство футболиста, вплоть до победы на первом этапе Кубка мира в Швеции, когда Пеле было семнадцать лет. Судьба не всегда была благосклонна к спортсмену, однако за каждой успешной личности стоит огромный труд, железная воля и твердая уверенность в собственных силах.
Релиз от Megapeer

Качество видео: HDRip (Исх. Pele.Birth.Of.A.Legend.2016.BDRip.1080p.ExKinoRay)
Формат видео: AVI
Видео: 688x288 (2.39:1), 23.976 fps, XviD build 73 ~841 kbps avg, 0.18 bit/pixel
Аудио: 48 kHz, MPEG Layer 3, 2 ch, ~128.00 kbps avg - iTunes

MediaInfo

ОбщееПолное имя                               : D:\загрузки\Pele.Birth.Of.A.Legend.2016.HDRip.745MB.MegaPeer.aviФормат                                   : AVIФормат/Информация                        : Audio Video InterleaveРазмер файла                             : 747 МбайтПродолжительность                        : 1 ч. 47 м.Общий поток                              : 975 Кбит/сек
ВидеоИдентификатор : 0Формат : MPEG-4 VisualПрофиль формата : Advanced Simple@L5Параметр BVOP формата : 1Параметр QPel формата : НетПараметр GMC формата : Без точки переходаПараметр матрицы формата : ВыборочнаяИдентификатор кодека : XVIDИдентификатор кодека/Подсказка : XviDПродолжительность : 1 ч. 47 м.Битрейт : 841 Кбит/секШирина : 688 пикселейВысота : 288 пикселейСоотношение сторон : 2,40:1Частота кадров : 23,976 (24000/1001) кадра/секЦветовое пространство : YUVСубдискретизация насыщенности : 4:2:0Битовая глубина : 8 битТип развёртки : ПрогрессивнаяМетод сжатия : С потерямиБит/(Пиксели*Кадры) : 0.177Размер потока : 644 Мбайт (86%)Библиотека кодирования : XviD 73
АудиоИдентификатор : 1Формат : MPEG AudioВерсия формата : Version 1Профиль формата : Layer 3Режим : Joint stereoРасширение режима : MS StereoИдентификатор кодека : 55Идентификатор кодека/Подсказка : MP3Продолжительность : 1 ч. 47 м.Вид битрейта : ПостоянныйБитрейт : 128 Кбит/секКаналы : 2 каналаЧастота : 48,0 КГцМетод сжатия : С потерямиРазмер потока : 98,0 Мбайт (13%)Выравнивание : Соединение по промежуткамПродолжительность промежутка : 167 мс. (4,00 видеокадра)Время предзагрузки промежутка : 216 мс.Заголовок : iTunesБиблиотека кодирования : LAME3.99rНастройки программы : -m j -V 4 -q 2 -lowpass 17 -b 128

Скриншоты

[Profile]  [PM] 
Display posts:    
Reply to topic

Current time is: 19-Jul 04:47

All times are UTC + 2



You cannot post new topics in this forum
You cannot reply to topics in this forum
You cannot edit your posts in this forum
You cannot delete your posts in this forum
You cannot vote in polls in this forum
You cannot attach files in this forum
You cannot download files in this forum