Снайпер: Воин призрак / Sniper: Ghost Shooter (Дон Майкл Пол / Don Michael Paul) [2016, США, Боевик, драма, военный, WEB-DLRip] MVO (iTunes)

Reply to topic
 
Author
Message

Satyr ®

Online

Gender: Unknown

Longevity: 11 years

Posts: 15401

Reputation: 55 [+] [-]

Satyr · Post 11-Sep-2016 01:22

[Quote] 

Снайпер: Воин призрак / Sniper: Ghost Shooter
Страна: США
Жанр: Боевик, драма, военный
Год выпуска: 2016
Продолжительность: 01:39:07
Перевод: Профессиональный (многоголосый закадровый) iTunes
Cубтитры: нет
Режиссер: Дон Майкл Пол / Don Michael Paul
В ролях: Найджел Барбер, Чад Коллинз, Пресцилиана Эспаролини, Энок Фрост, Ник Гомес, Дэннис Хэйсбёрт, Равиль Исянов, Велислав Павлов, Стефани Вогт, Билли Зейн
Описание: Элитные снайперы Брэндон Беккет и Ричард Миллер должны выполнить очередную задачу, защитив линию газопровода от захвата террористов. Когда герои понимают, что противник знает их точное место расположения, у них появляются подозрения о том, что кто-то из их руководства информирует террористов....
Сэмпл: http://multi-up.com/1112243
Качество видео: WEB-DLRip (Исходник WEB-DL 1080p)
Формат видео: AVI
Видео: XviD 73, 656x368, (16:9), 23,976 fps, 918 Кбит/с, 8 бит
Аудио: Русский (МР3, 2 ch, 48,0 KHz, 128 Kbps)

MediaInfo

Общее
Полное имя : F:\Видеофильмы\В и д е о\Cнайпер - воин призрак (боевик военный 2016г).avi
Формат : AVI
Формат/Информация : Audio Video Interleave
Размер файла : 746 Мбайт
Продолжительность : 1 ч. 39 м.
Общий поток : 1052 Кбит/сек
Видео
Идентификатор : 0
Формат : MPEG-4 Visual
Профиль формата : Advanced Simple@L5
Параметр BVOP формата : 1
Параметр QPel формата : Нет
Параметр GMC формата : Без точки перехода
Параметр матрицы формата : Выборочная
Идентификатор кодека : XVID
Идентификатор кодека/Подсказка : XviD
Продолжительность : 1 ч. 39 м.
Битрейт : 918 Кбит/сек
Ширина : 656 пикселей
Высота : 368 пикселей
Соотношение сторон : 16:9
Частота кадров : 23,976 (24000/1001) кадра/сек
Цветовое пространство : YUV
Субдискретизация насыщенности : 4:2:0
Битовая глубина : 8 бит
Тип развёртки : Прогрессивная
Метод сжатия : С потерями
Бит/(Пиксели*Кадры) : 0.159
Размер потока : 651 Мбайт (87%)
Библиотека кодирования : XviD 73
Аудио
Идентификатор : 1
Формат : MPEG Audio
Версия формата : Version 1
Профиль формата : Layer 3
Режим : Joint stereo
Расширение режима : MS Stereo
Идентификатор кодека : 55
Идентификатор кодека/Подсказка : MP3
Продолжительность : 1 ч. 39 м.
Вид битрейта : Постоянный
Битрейт : 128 Кбит/сек
Каналы : 2 канала
Частота : 48,0 КГц
Метод сжатия : С потерями
Размер потока : 90,8 Мбайт (12%)
Выравнивание : Соединение по промежуткам
Продолжительность промежутка : 167 мс. (4,00 видеокадра)
Время предзагрузки промежутка : 216 мс.
Заголовок : iTunes
Библиотека кодирования : LAME3.99r
Настройки программы : -m j -V 4 -q 2 -lowpass 17 -b 128

Скриншот c названием фильма

[Profile]  [PM] 
Display posts:    
Reply to topic

Current time is: 24-Sep 02:43

All times are UTC + 2



You cannot post new topics in this forum
You cannot reply to topics in this forum
You cannot edit your posts in this forum
You cannot delete your posts in this forum
You cannot vote in polls in this forum
You cannot attach files in this forum
You cannot download files in this forum