Белоснежка и Охотник 2 / The Huntsman Winter\'s War (Седрик Николя-Троян / Cedric Nicolas-Troyan) [2016, США, Фэнтези, боевик, драма, приключения, BDRip] Dub (iTunes)

Reply to topic
 
Author
Message

Satyr ®

Gender: Unknown

Longevity: 11 years

Posts: 15401

Reputation: 55 [+] [-]

Satyr · Post 11-Sep-2016 01:22

[Quote] 

Белоснежка и Охотник 2 / The Huntsman Winter's War
Страна: США
Жанр: Фэнтези, боевик, драма, приключения
Год выпуска: 2016
Продолжительность: 01:53:57
Перевод: Профессиональный (дублированный) iTunes
Cубтитры: нет
Режиссер: Седрик Николя-Троян / Cedric Nicolas-Troyan
В ролях: Крис Хемсворт, Шарлиз Терон, Джессика Честейн, Эмили Блант, Ник Фрост, Роб Брайдон, Шеридан Смит, Александра Роуч, Сопе Дирису, Сэм Хэзелдайн, Сэм Клафлин, Софи Куксон, Конрад Кхан, Ниам Уолтер, Нана Аджйеман-Бедьяко, Амелия Крауч, Фред Татаскьор, Ралф Айнесон, Линн Уилмот, Колин Морган
Описание: Злая колдунья Равенна уничтожена. На трон королевства Табор восходит Белоснежка, неся в сказочный мир добро, радость и низкие налоги. Но сестра Равенны, ледяная королева Фрейя, готовит рабочий план по досрочному наступлению нового ледникового периода с помощью волшебного зеркала и своей армии специально обученных воинов, не ведающих человеческих слабостей. Ей противостоят бесстрашный охотник Эрик и его возлюбленная Сара.
Релиз от Megapeer
Сэмпл: http://multi-up.com/1111903
Качество видео: BDRip (Исх. The Huntsman: Winter's War (2016) [Theatrical Cut] 1080p BD-Remux-HDClub)
Формат видео: AVI
Видео: 656x272 (2.41:1), 23.976 fps, XviD build 73 ~781 kbps avg, 0.18 bit/pixel
Аудио: 48 kHz, MPEG Layer 3, 2 ch, ~128.00 kbps avg - iTunes

MediaInfo

ОбщееПолное имя                               : D:\загрузки\The.Huntsman.Winters.War.2016.BDRip.745MB.byMegaPeer.aviФормат                                   : AVIФормат/Информация                        : Audio Video InterleaveРазмер файла                             : 746 МбайтПродолжительность                        : 1 ч. 53 м.Общий поток                              : 915 Кбит/сек
ВидеоИдентификатор : 0Формат : MPEG-4 VisualПрофиль формата : Advanced Simple@L5Параметр BVOP формата : 1Параметр QPel формата : НетПараметр GMC формата : Без точки переходаПараметр матрицы формата : ВыборочнаяИдентификатор кодека : XVIDИдентификатор кодека/Подсказка : XviDПродолжительность : 1 ч. 53 м.Битрейт : 781 Кбит/секШирина : 656 пикселейВысота : 272 пикселяСоотношение сторон : 2,40:1Частота кадров : 23,976 (24000/1001) кадра/секЦветовое пространство : YUVСубдискретизация насыщенности : 4:2:0Битовая глубина : 8 битТип развёртки : ПрогрессивнаяМетод сжатия : С потерямиБит/(Пиксели*Кадры) : 0.183Размер потока : 636 Мбайт (85%)Библиотека кодирования : XviD 73
АудиоИдентификатор : 1Формат : MPEG AudioВерсия формата : Version 1Профиль формата : Layer 3Режим : Joint stereoРасширение режима : MS StereoИдентификатор кодека : 55Идентификатор кодека/Подсказка : MP3Продолжительность : 1 ч. 53 м.Вид битрейта : ПостоянныйБитрейт : 128 Кбит/секКаналы : 2 каналаЧастота : 48,0 КГцМетод сжатия : С потерямиРазмер потока : 104 Мбайт (14%)Выравнивание : Соединение по промежуткамПродолжительность промежутка : 167 мс. (4,00 видеокадра)Время предзагрузки промежутка : 216 мс.Заголовок : iTunesБиблиотека кодирования : LAME3.99rНастройки программы : -m j -V 4 -q 2 -lowpass 17 -b 128

Скриншоты

[Profile]  [PM] 
Display posts:    
Reply to topic

Current time is: 22-Jan 15:43

All times are UTC + 2



You cannot post new topics in this forum
You cannot reply to topics in this forum
You cannot edit your posts in this forum
You cannot delete your posts in this forum
You cannot vote in polls in this forum
You cannot attach files in this forum
You cannot download files in this forum