Славные парни / The Nice Guys (Шейн Блэк / Shane Black) [2016, США, Криминал, комедия, WEB-DLRip-AVC] Dub (iTunes)

Reply to topic
 
Author
Message

Satyr ®

Gender: Unknown

Longevity: 15 years

Posts: 22020

Reputation: 56 [+] [-]

Satyr · Post 11-Sep-2016 01:22

[Quote] 

Славные парни / The Nice Guys
«Симпатичная пара»- Год выхода: 2016
Выпущено: США, Великобритания / Bloom, Lip Sync Productions, Misty Mountains
Жанр: криминал, комедия
Продолжительность: 01:51:03
Перевод: Профессиональный (полное дублирование)
Субтитры: нет
Навигация по главам: Есть (18 глав)-Режиссер:
Шейн Блэк / Shane Black-В ролях:
Райан Гослинг, Ким Бейсингер, Расселл Кроу, Энгаури Райс, Мэтт Бомер, Маргарет Куэлли, Йайа ДаКоста, Кит Дэвид, Бо Напп, Лоис Смит-О фильме:
Что бывает, когда напарником брутального костолома становится субтильный лопух? Наемный охранник Джексон Хили и частный детектив Холланд Марч вынуждены работать в паре, чтобы распутать плевое дело о пропавшей девушке, которое оборачивается преступлением века.
Смогут ли парни разгадать сложный ребус, если у каждого из них — свои, весьма индивидуальные методы…-Релиз групп | | IMDB | КиноПоиск | Сэмпл |-Качество: WEB-DLRip-AVC [The.Nice.Guys.2016.1080p.WEB-DL.Rus.HDCLUB]
Формат: MKV
Видео: 992x416 (2.40:1), 25.000 fps, x264 ~1485 kbps avg, 0.144 bit/pixel
Аудио: 48 kHz, AC3 Dolby Digital, 3/2 (L,C,R,l,r) + LFE ch, ~384 kbps avg - iTunes Russia-

Скриншоты

-

MediaInfo

Общее
Полное имя                               : D:\Slavnye_parni_2016_WEB-DLRip-AVC_iT_by_Dalemake.mkv
Формат                                   : Matroska
Версия формата                           : Version 4 / Version 2
Размер файла                             : 1,45 Гбайт
Продолжительность                        : 1 ч. 51 м.
Общий поток                              : 1870 Кбит/сек
Название фильма                          : [The Nice Guys_2016_All Films Rutracker.org_by Dalemake]
Дата кодирования                         : UTC 2016-07-28 17:59:45
Программа кодирования                    : mkvmerge v7.8.0 ('River Man') 32bit built on Apr  3 2015 12:11:22
Библиотека кодирования                   : libebml v1.3.1 + libmatroska v1.4.2
DURATION                                 : 01:51:03.584000000
NUMBER_OF_FRAMES                         : 208237
NUMBER_OF_BYTES                          : 319852032
_STATISTICS_WRITING_APP                  : mkvmerge v7.8.0 ('River Man') 32bit built on Apr  3 2015 12:11:22
_STATISTICS_WRITING_DATE_UTC             : 2016-07-28 17:59:45
_STATISTICS_TAGS                         : BPS DURATION NUMBER_OF_FRAMES NUMBER_OF_BYTES
Видео
Идентификатор                            : 1
Формат                                   : AVC
Формат/Информация                        : Advanced Video Codec
Профиль формата                          : High@L4.1
Параметр CABAC формата                   : Да
Параметр ReFrames формата                : 8 кадров
Идентификатор кодека                     : V_MPEG4/ISO/AVC
Продолжительность                        : 1 ч. 51 м.
Битрейт                                  : 1485 Кбит/сек
Ширина                                   : 992 пикселя
Высота                                   : 416 пикселей
Соотношение сторон                       : 2,40:1
Частота кадров                           : 25,000 кадров/сек
Цветовое пространство                    : YUV
Субдискретизация насыщенности            : 4:2:0
Битовая глубина                          : 8 бит
Тип развёртки                            : Прогрессивная
Бит/(Пиксели*Кадры)                      : 0.144
Размер потока                            : 1,12 Гбайт (77%)
Заголовок                                : [The Nice Guys_2016_All Films Rutracker.org_by Dalemake]
Библиотека кодирования                   : x264 core 146 r2538 121396c
Настройки программы                      : cabac=1 / ref=8 / deblock=1:-2:-1 / analyse=0x3:0x113 / me=umh / subme=11 / psy=1 / psy_rd=1.00:0.00 / mixed_ref=1 / me_range=32 / chroma_me=1 / trellis=2 / 8x8dct=1 / cqm=0 / deadzone=21,11 / fast_pskip=0 / chroma_qp_offset=-4 / threads=6 / lookahead_threads=1 / sliced_threads=0 / nr=0 / decimate=0 / interlaced=0 / bluray_compat=0 / constrained_intra=0 / bframes=9 / b_pyramid=2 / b_adapt=2 / b_bias=0 / direct=3 / weightb=1 / open_gop=0 / weightp=2 / keyint=250 / keyint_min=25 / scenecut=40 / intra_refresh=0 / rc_lookahead=60 / rc=2pass / mbtree=0 / bitrate=1485 / ratetol=1.0 / qcomp=0.60 / qpmin=0 / qpmax=69 / qpstep=4 / cplxblur=20.0 / qblur=0.5 / vbv_maxrate=50000 / vbv_bufsize=62500 / nal_hrd=none / filler=0 / ip_ratio=1.30 / pb_ratio=1.25 / aq=1:1.00
Default                                  : Да
Forced                                   : Нет
Аудио
Идентификатор                            : 2
Формат                                   : AC-3
Формат/Информация                        : Audio Coding 3
Расширение режима                        : CM (complete main)
Параметр Endianness формата              : Big
Идентификатор кодека                     : A_AC3
Продолжительность                        : 1 ч. 51 м.
Вид битрейта                             : Постоянный
Битрейт                                  : 384 Кбит/сек
Каналы                                   : 6 каналов
Расположение каналов                     : Front: L C R, Side: L R, LFE
Частота                                  : 48,0 КГц
Битовая глубина                          : 16 бит
Метод сжатия                             : С потерями
Размер потока                            : 305 Мбайт (21%)
Заголовок                                : Dub - iTunes Russia
Язык                                     : Russian
Default                                  : Да
Forced                                   : Нет
Меню
00:00:00.000                             : en:1
00:05:11.920                             : en:2
00:10:32.080                             : en:3
00:15:49.320                             : en:4
00:21:52.600                             : en:5
00:27:59.160                             : en:6
00:33:26.560                             : en:7
00:39:43.040                             : en:8
00:45:19.960                             : en:9
00:50:40.440                             : en:10
00:56:20.680                             : en:11
01:03:01.800                             : en:12
01:08:38.720                             : en:13
01:14:35.520                             : en:14
01:21:06.640                             : en:15
01:27:33.440                             : en:16
01:33:37.520                             : en:17
01:39:12.280                             : en:18
-
[Profile]  [PM] 
Display posts:    
Reply to topic

Current time is: 13-Jul 07:33

All times are UTC + 2



You cannot post new topics in this forum
You cannot reply to topics in this forum
You cannot edit your posts in this forum
You cannot delete your posts in this forum
You cannot vote in polls in this forum
You cannot attach files in this forum
You cannot download files in this forum