В поиске / Looking: The Movie (Эндрю Хэй / Andrew Haigh) [2016, США, драма, комедия, WEBRip-AVC] Sub Rus, Eng + Original Eng

Reply to topic
 
Author
Message

Satyr ®

Gender: Unknown

Longevity: 15 years

Posts: 22031

Reputation: 56 [+] [-]

Satyr · Post 11-Sep-2016 01:22

[Quote] 

В поиске / Looking: The Movie
Страна: США
Жанр: драма, комедия
Год выпуска: 2016
Продолжительность: 01:21:08
Перевод: субтитры (пер. EndlesslyMuse)
Cубтитры: русские, английские
Оригинальная аудиодорожка: английский
Режиссер: Эндрю Хэй / Andrew Haigh
В ролях: Джонатан Грофф, Фрэнки Х. Альварес, Мюррэй Бартлетт, Рауль Кастильо, Лорен Уидман, Рассел Тови
Описание: Патрик возвращается в Сан-Франциско, чтобы окончательно разобраться в своих чувствах и сделать выбор в его отношениях с Ричи и Кевином. А также вместе с друзьями отметить принятие брачного равноправия в США.
Доп. информация: Полнометражный фильм - продолжение сериала Looking (2014-2015)
1 сезон: http://torrentsland.com.ua/forum/viewtopic.php?t=4927687
2 сезон: http://torrentsland.com.ua/forum/viewtopic.php?t=4917517
Сэмпл: http://multi-up.com/1111597
Качество видео: WEBRip-AVC
Формат видео: MP4
Видео: MPEG4 Video (H264) 1280x720 25fps 928kbps
Аудио: AAC 44100Hz stereo 100kbps
Формат субтитров: softsub (SRT)

MediaInfo

General
Complete name : D:\Downloads\Looking. The Movie (Andrew Haigh, 2016)\Looking.The.Movie.2016.720p.WEBRip.iExTV.mp4
Format : MPEG-4
Format profile : Base Media
Codec ID : isom (isom/avc1)
File size : 600 MiB
Duration : 1h 21mn
Overall bit rate mode : Variable
Overall bit rate : 1 033 Kbps
Encoded date : UTC 2016-07-24 17:18:25
Tagged date : UTC 2016-07-24 17:18:25
Video
ID : 1
Format : AVC
Format/Info : Advanced Video Codec
Format profile : High@L4
Format settings, CABAC : Yes
Format settings, ReFrames : 5 frames
Codec ID : avc1
Codec ID/Info : Advanced Video Coding
Duration : 1h 21mn
Bit rate : 929 Kbps
Maximum bit rate : 11.7 Mbps
Width : 1 280 pixels
Height : 720 pixels
Display aspect ratio : 16:9
Frame rate mode : Constant
Frame rate : 25.000 fps
Color space : YUV
Chroma subsampling : 4:2:0
Bit depth : 8 bits
Scan type : Progressive
Bits/(Pixel*Frame) : 0.040
Stream size : 539 MiB (90%)
Writing library : x264 core 148 r2692 64f4e24
Encoding settings : cabac=1 / ref=5 / deblock=1:-1:-1 / analyse=0x3:0x113 / me=umh / subme=8 / psy=1 / psy_rd=1.00:0.00 / mixed_ref=1 / me_range=16 / chroma_me=1 / trellis=2 / 8x8dct=1 / cqm=0 / deadzone=21,11 / fast_pskip=1 / chroma_qp_offset=-2 / threads=12 / lookahead_threads=2 / sliced_threads=0 / nr=0 / decimate=1 / interlaced=0 / bluray_compat=0 / constrained_intra=0 / bframes=3 / b_pyramid=0 / b_adapt=1 / b_bias=0 / direct=3 / weightb=1 / open_gop=0 / weightp=2 / keyint=240 / keyint_min=23 / scenecut=40 / intra_refresh=0 / rc_lookahead=60 / rc=2pass / mbtree=1 / bitrate=929 / ratetol=1.0 / qcomp=0.60 / qpmin=0 / qpmax=69 / qpstep=4 / cplxblur=20.0 / qblur=0.5 / vbv_maxrate=20000 / vbv_bufsize=25000 / nal_hrd=none / filler=0 / ip_ratio=1.40 / aq=1:1.00
Encoded date : UTC 2016-07-24 17:18:25
Tagged date : UTC 2016-07-24 17:18:38
Audio
ID : 2
Format : AAC
Format/Info : Advanced Audio Codec
Format profile : LC
Codec ID : 40
Duration : 1h 21mn
Source duration : 1h 21mn
Bit rate mode : Variable
Bit rate : 101 Kbps
Maximum bit rate : 118 Kbps
Channel(s) : 2 channels
Channel positions : Front: L R
Sampling rate : 44.1 KHz
Frame rate : 43.066 fps (1024 spf)
Compression mode : Lossy
Stream size : 58.6 MiB (10%)
Source stream size : 58.6 MiB (10%)
Language : English
Default : Yes
Alternate group : 1
Tagged date : UTC 2016-07-24 17:18:38
Text
ID : 3
Format : Timed Text
Codec ID : tx3g
Duration : 1h 17mn
Bit rate mode : Variable
Bit rate : 89 bps
Stream size : 50.6 KiB (0%)
Title :
Language : English
Forced : No
Encoded date : UTC 2016-07-24 17:18:38
Tagged date : UTC 2016-07-24 17:18:38

Фрагмент субтитров

1
00:00:36,200 --> 00:00:37,571
Впервые здесь?
2
00:00:37,667 --> 00:00:38,952
Я?
3
00:00:39,048 --> 00:00:41,158
Нет, я жил здесь.
4
00:00:41,254 --> 00:00:43,076
Почти 10 лет.
5
00:00:43,172 --> 00:00:45,090
И уехали?
6
00:00:45,186 --> 00:00:46,375
Ага.
7
00:00:47,305 --> 00:00:49,635
И что же привело Вас обратно?
8
00:00:49,732 --> 00:00:51,746
Я приехал на свадьбу.
9
00:00:51,851 --> 00:00:53,031
Вашу?
10
00:00:54,920 --> 00:00:56,224
Нет.
11
00:00:57,510 --> 00:00:59,428
И как, хорошо снова оказаться тут?
12
00:01:02,343 --> 00:01:04,520
Спросите через пару дней.
13
00:01:04,616 --> 00:01:05,796
Справедливо.
14
00:01:36,840 --> 00:01:38,499
Спасибо.
15
00:01:50,727 --> 00:01:52,578
Посмотрите-ка, кого в город принесло.
16
00:01:52,683 --> 00:01:55,368
- Привет, ребят.
- Не могу... Мне нравится, что ты опоздал.
17
00:01:55,464 --> 00:01:56,615
Мне кажется, ты вообще никогда не опаздывал.
18
00:01:56,711 --> 00:01:58,409
Может быть, я наконец-то начинаю следовать моде.
19
00:01:58,504 --> 00:02:00,096
- Мне нравится твоя борода. Привет.
- Привет.
20
00:02:00,202 --> 00:02:01,698
Я говорил тебе: 9 месяцев - это все, что нужно,
21
00:02:01,794 --> 00:02:02,849
чтобы сделать из него нового человека.
22
00:02:02,954 --> 00:02:04,546
- Прекрати, перестань.
- Нет, надо приподнять еще!
23
00:02:04,642 --> 00:02:06,119
- Мужик прям.
- Поверить не могу, что мы сюда пришли.

Скриншоты

[Profile]  [PM] 
Display posts:    
Reply to topic

Current time is: 19-Jul 05:14

All times are UTC + 2



You cannot post new topics in this forum
You cannot reply to topics in this forum
You cannot edit your posts in this forum
You cannot delete your posts in this forum
You cannot vote in polls in this forum
You cannot attach files in this forum
You cannot download files in this forum