Братья из Гримсби / Grimsby (Луи Летерье / Louis Leterrier) [2016, Великобритания, Австралия, США, боевик, комедия, BDRip-AVC] Dub + Sub (rus)

Reply to topic
 
Author
Message

Satyr ®

Gender: Unknown

Longevity: 15 years

Posts: 21964

Reputation: 56 [+] [-]

Satyr · Post 11-Sep-2016 01:22

[Quote] 

Братья из Гримсби
Grimsby
«One secret agent. One complete idiot»

Страна: Великобритания, Австралия, США
Жанр: боевик, комедия
Год выпуска: 2016
Продолжительность: 01:23:09
Перевод: Профессиональный (полное дублирование) [Blu-ray CEE]
Cубтитры: русские (форсированные)
Оригинальная аудиодорожка: нет
Режиссер: Луи Летерье / Louis Leterrier
В ролях: Саша Барон Коэн, Марк Стронг, Ребел Уилсон, Пенелопа Крус, Айла Фишер, Габури Сидибе, Аннабелль Уоллис, Иэн МакШейн, Дэвид Хэрвуд, Рикки Томлинсон, Джонни Вегас, Скотт Эдкинс
Описание:
Сверхсекретная операция, которую выполняет образцовый спецагент, с треском провалена из-за некстати свалившегося на его голову неадекватного брата — оголтелого футбольного фаната и полного беспредельщика. Теперь герою предстоит спасти свою жизнь и вдобавок планету от нависшей над ней угрозы — практически невыполнимая задача в тандеме с вновь приобретенным родственником.


Автор рипа: stalkerok
Сэмпл
Качество видео: BDRip-AVC [Grimsby (2016) Blu-ray CEE 1080p AVC DD5.1 HDCLUB]
Формат видео: MKV
Видео: 1189 Кбит/сек, 790*330 (2,40:1), в 23,976 (24000/1001) кадра/сек, AVC
Аудио: русский, 64,0 Кбит/сек, 48,0 КГц / 24,0 КГц, 2 канала, AAC (HE-AAC / LC)
Навигация по главам: есть

MediaInfo

Общее
Уникальный идентификатор : 247176719447274694481607396298787659032 (0xB9F4812A719C8CC9A216CA9765C41D18)
Полное имя : M:\2Rips\Grimsby\Grimsby.2016.BDRip-AVC.Dub.745Mb.stalkerok.new-team.mkv
Формат : Matroska
Версия формата : Version 4 / Version 2
Размер файла : 745 Мбайт
Продолжительность : 1 ч. 23 м.
Общий поток : 1253 Кбит/сек
Название фильма : Grimsby (2016) (Rip by stalkerok)
Дата кодирования : UTC 2016-07-25 14:39:24
Программа кодирования : mkvmerge v8.6.1 ('Flying') 64bit
Библиотека кодирования : libebml v1.3.3 + libmatroska v1.4.4
Видео
Идентификатор : 1
Формат : AVC
Формат/Информация : Advanced Video Codec
Профиль формата : High@L4.1
Параметр CABAC формата : Да
Параметр ReFrames формата : 16 кадров
Идентификатор кодека : V_MPEG4/ISO/AVC
Продолжительность : 1 ч. 23 м.
Битрейт : 1189 Кбит/сек
Ширина : 790 пикселей
Высота : 330 пикселей
Соотношение сторон : 2,40:1
Режим частоты кадров : Постоянный
Частота кадров : 23,976 (24000/1001) кадра/сек
Цветовое пространство : YUV
Субдискретизация насыщенности : 4:2:0
Битовая глубина : 8 бит
Тип развёртки : Прогрессивная
Бит/(Пиксели*Кадры) : 0.190
Размер потока : 706 Мбайт (95%)
Заголовок : Grimsby (2016) (Rip by stalkerok)
Библиотека кодирования : x264 core 148 r2705+54 9f484c1 t_mod_Custom [8-bit@all X86_64]
Настройки программы : cabac=1 / ref=16 / deblock=1:-3:-2 / analyse=0x3:0x133 / me=umh / subme=11 / psy=1 / fade_compensate=0.00 / psy_rd=1.00:0.00 / mixed_ref=1 / me_range=32 / chroma_me=1 / trellis=2 / 8x8dct=1 / cqm=0 / deadzone=21,11 / fast_pskip=0 / chroma_qp_offset=-2 / threads=10 / lookahead_threads=2 / sliced_threads=0 / nr=0 / decimate=0 / interlaced=0 / bluray_compat=0 / constrained_intra=0 / fgo=0 / bframes=16 / b_pyramid=2 / b_adapt=2 / b_bias=0 / direct=3 / weightb=1 / open_gop=0 / weightp=2 / keyint=240 / keyint_min=23 / scenecut=40 / intra_refresh=0 / rc_lookahead=60 / rc=2pass / mbtree=0 / bitrate=1189 / ratetol=1.0 / qcomp=0.65 / qpmin=0:0:0 / qpmax=69:69:69 / qpstep=4 / cplxblur=20.0 / qblur=0.5 / vbv_maxrate=50000 / vbv_bufsize=62500 / nal_hrd=none / filler=0 / ip_ratio=1.40 / pb_ratio=1.30 / aq=3:0.90 / aq-sensitivity=10.00 / aq-factor=1.00:1.00:1.00 / aq2=0 / aq3=0
Default : Да
Forced : Нет
Аудио
Идентификатор : 2
Формат : AAC
Формат/Информация : Advanced Audio Codec
Профиль формата : HE-AAC / LC
Идентификатор кодека : A_AAC
Продолжительность : 1 ч. 23 м.
Битрейт : 64,0 Кбит/сек
Каналы : 2 канала
Расположение каналов : Front: L R
Частота : 48,0 КГц / 24,0 КГц
Частота кадров : 23,438 кадра/сек (1024 spf)
Метод сжатия : С потерями
Задержка видео : 31 мс.
Размер потока : 38,1 Мбайт (5%)
Язык : Russian
Default : Да
Forced : Нет
Текст
Идентификатор : 3
Формат : UTF-8
Идентификатор кодека : S_TEXT/UTF8
Идентификатор кодека/Информация : UTF-8 Plain Text
Продолжительность : 1 ч. 14 м.
Битрейт : 2 бит/сек
Count of elements : 28
Размер потока : 1,43 Кбайт (0%)
Язык : Russian
Default : Да
Forced : Нет
Меню
00:00:00.000 : en:Chapter 1
00:06:54.330 : en:Chapter 2
00:11:00.993 : en:Chapter 3
00:16:25.734 : en:Chapter 4
00:21:37.629 : en:Chapter 5
00:26:43.727 : en:Chapter 6
00:31:46.863 : en:Chapter 7
00:36:48.831 : en:Chapter 8
00:41:57.181 : en:Chapter 9
00:46:55.103 : en:Chapter 10
00:52:22.639 : en:Chapter 11
00:57:31.531 : en:Chapter 12
01:01:30.895 : en:Chapter 13
01:06:19.183 : en:Chapter 14
01:11:55.144 : en:Chapter 15
01:16:28.917 : en:Chapter 16

Скриншоты

[Profile]  [PM] 
Display posts:    
Reply to topic

Current time is: 24-Jun 19:13

All times are UTC + 2



You cannot post new topics in this forum
You cannot reply to topics in this forum
You cannot edit your posts in this forum
You cannot delete your posts in this forum
You cannot vote in polls in this forum
You cannot attach files in this forum
You cannot download files in this forum