Снекуик / Sneekweek (Мартин Хейджен / Martijn Heijne) [2016, Нидерланды, триллер, комедия, HDRip] VO (Хихикающий доктор) + Sub Eng + Original Dut

Reply to topic
 
Author
Message

Satyr ®

Gender: Unknown

Longevity: 11 years

Posts: 15401

Reputation: 55 [+] [-]

Satyr · Post 11-Sep-2016 01:22

[Quote] 

Снекуик / Sneekweek
Страна: Нидерланды
Жанр: триллер, комедия
Год выпуска: 2016
Продолжительность: 01:52:35
Перевод: Одноголосый закадровый Хихикающий доктор
Cубтитры: английские (внешние)
Оригинальная аудиодорожка: нидерландский
Режиссер: Мартин Хейджен / Martijn Heijne
В ролях: Каролин Спор, Йелле де Йонг, Юта Вонг Лой Синг, Ферри Дуденс, Кимберли Клавер, Марли ван дер Вельден, …
Описание: Шестеро друзей отправляются на праздник под названием "Sneekweek", который идет целую неделю. Они пытаются в пьянках и беспорядочной половой жизни забыть о страшной тайне, которая связывает их уже 2 года. Но прошлое неумолимо настигает их.
Доп. информация: Возраст: 18+ (зрителям, достигшим 18 лет)
Сэмпл: http://multi-up.com/1111216
Качество видео: HDRip
Формат видео: AVI
Видео: 720x304 (2.37:1), 23.976 fps, XviD build 64 ~1470 kbps avg, 0.28 bit/pixel
Аудио: 44.1 kHz, AC3 Dolby Digital, 2/0 (L,R) ch, ~192 kbps - xixidok (Русский)
Аудио 2: 48 kHz, AC3 Dolby Digital, 2/0 (L,R) ch, ~192 kbps (Нидерландский)

MediaInfo

Общее
Полное имя : D:\загрузки\Sneekweek (2016) HDRip.Xixdok\Sneekweek.2016.HDRip.avi
Формат : AVI
Формат/Информация : Audio Video Interleave
Профиль формата : OpenDML
Размер файла : 1,46 Гбайт
Продолжительность : 1 ч. 52 м.
Общий поток : 1861 Кбит/сек
Программа кодирования : XviD4PSP 6.0 / 54.29.105
Видео
Идентификатор : 0
Формат : xvid
Идентификатор кодека : xvid
Продолжительность : 1 ч. 52 м.
Битрейт : 1459 Кбит/сек
Ширина : 720 пикселей
Высота : 304 пикселя
Соотношение сторон : 2,40:1
Частота кадров : 23,976 кадра/сек
Тип развёртки : Прогрессивная
Бит/(Пиксели*Кадры) : 0.278
Размер потока : 1,15 Гбайт (78%)
Аудио #1
Идентификатор : 1
Формат : AC-3
Формат/Информация : Audio Coding 3
Расширение режима : CM (complete main)
Параметр Endianness формата : Big
Идентификатор кодека : 2000
Продолжительность : 1 ч. 52 м.
Вид битрейта : Постоянный
Битрейт : 192 Кбит/сек
Каналы : 2 канала
Расположение каналов : Front: L R
Частота : 44,1 КГц
Частота кадров : 28,711 кадров/сек (1536 spf)
Битовая глубина : 16 бит
Метод сжатия : С потерями
Размер потока : 155 Мбайт (10%)
Выравнивание : Соединение по промежуткам
Продолжительность промежутка : 35 мс. (0,84 видеокадр)
Заголовок : xixidok
Аудио #2
Идентификатор : 2
Формат : AC-3
Формат/Информация : Audio Coding 3
Расширение режима : CM (complete main)
Параметр Endianness формата : Big
Идентификатор кодека : 2000
Продолжительность : 1 ч. 52 м.
Вид битрейта : Постоянный
Битрейт : 192 Кбит/сек
Каналы : 2 канала
Расположение каналов : Front: L R
Частота : 48,0 КГц
Частота кадров : 31,250 кадров/сек (1536 spf)
Битовая глубина : 16 бит
Метод сжатия : С потерями
Размер потока : 155 Мбайт (10%)
Выравнивание : Соединение по промежуткам
Продолжительность промежутка : 32 мс. (0,77 видеокадр)

Скриншоты

[Profile]  [PM] 
Display posts:    
Reply to topic

Current time is: 22-Jan 14:56

All times are UTC + 2



You cannot post new topics in this forum
You cannot reply to topics in this forum
You cannot edit your posts in this forum
You cannot delete your posts in this forum
You cannot vote in polls in this forum
You cannot attach files in this forum
You cannot download files in this forum