Братья из Гримсби / Grimsby / The Brothers Grimsby (Луи Летерье / Louis Leterrier) [2016, Великобритания, боевик, комедия, BDRip-AVC] Dub + Original + Sub (rus, eng)

Reply to topic
 
Author
Message

Satyr ®

Gender: Unknown

Longevity: 15 years

Posts: 22045

Reputation: 56 [+] [-]

Satyr · Post 11-Sep-2016 01:22

[Quote] 

Братья из Гримсби / Grimsby / The Brothers Grimsby«One secret agent. One complete idiot»- Страна: Великобритания, Австралия
Жанр: боевик, комедия
Год выпуска: 2016
Продолжительность: 01:23:09
Перевод: Профессиональный (дублированный) (BD CEE)
Оригинальная аудиодорожка: английский
Cубтитры: русские (форс., полные), английские (полные, SDH)
Навигация по главам: есть
Режиссеры: Луи Летерье / Louis Leterrier
В ролях: Саша Барон Коэн, Марк Стронг, Ребел Уилсон, Пенелопа Крус, Айла Фишер, Скотт Эдкинс, Иэн МакШейн, Габури Сидибе, Аннабелль Уоллис, Дэвид Хэрвуд, Рикки Томлинсон, Джонни Вегас, Сэм Хэзелдайн, Фредди Краудер, Джон-Джон Локвуд, Шон Томас, Клаудия Эдшид, Лекс Шрэпнел
Описание: Сверхсекретная операция, которую выполняет образцовый спецагент, с треском провалена из-за некстати свалившегося на его голову неадекватного брата — оголтелого футбольного фаната и полного беспредельщика. Теперь герою предстоит спасти свою жизнь и вдобавок планету от нависшей над ней угрозы — практически невыполнимая задача в тандеме с вновь приобретенным родственником.

Качество видео: BDRip-AVC (исходник - Blu-ray|THE_BROTHERS_GRIMSBY_HDCLUB)
Формат видео: MKV
Видео: x264, 1152х482 (2.40:1), 23,976 fps, ~3786 kbps, 0.284 bit/pixel
Аудио 1: 48 kHz, AC3 Dolby Digital, 3/2 (L,C,R,l,r) + LFE ch, ~448 kbps [русский]
Аудио 2: 48 kHz, AC3 Dolby Digital, 3/2 (L,C,R,l,r) + LFE ch, ~448 kbps [английский]
Формат субтитров: softsub (SRT)

MediaInfo | x264 log

Format : Matroska
Format version : Version 4 / Version 2
File size : 2.77 GiB
Duration : 1h 23mn
Overall bit rate : 4 777 Kbps
Movie name : Братья из Гримсби / Grimsby (2016) :: AFM ::
Encoded date : UTC 2016-07-23 12:48:08
Writing application : mkvmerge v8.3.0 ('Over the Horizon') 32bit
Writing library : libebml v1.3.1 + libmatroska v1.4.2
Video
ID : 1
Format : AVC
Format/Info : Advanced Video Codec
Format profile : High@L4.1
Format settings, CABAC : Yes
Format settings, ReFrames : 11 frames
Codec ID : V_MPEG4/ISO/AVC
Duration : 1h 23mn
Bit rate : 3 786 Kbps
Width : 1 152 pixels
Height : 482 pixels
Display aspect ratio : 2.40:1
Frame rate mode : Constant
Frame rate : 23.976 fps
Color space : YUV
Chroma subsampling : 4:2:0
Bit depth : 8 bits
Scan type : Progressive
Bits/(Pixel*Frame) : 0.284
Stream size : 2.20 GiB (79%)
Title : BDRip by AFM [torrentsland.com.ua]
Writing library : x264 core 148 r2705+54 9f484c1 t_mod_Custom [8-bit@all X86_64]
Encoding settings : cabac=1 / ref=11 / deblock=1:-3:-3 / analyse=0x3:0x113 / me=umh / subme=10 / psy=1 / fade_compensate=0.00 / psy_rd=1.00:0.00 / mixed_ref=1 / me_range=32 / chroma_me=1 / trellis=2 / 8x8dct=1 / cqm=0 / deadzone=21,11 / fast_pskip=0 / chroma_qp_offset=-2 / threads=6 / lookahead_threads=1 / sliced_threads=0 / nr=0 / decimate=1 / interlaced=0 / bluray_compat=0 / constrained_intra=0 / fgo=0 / bframes=12 / b_pyramid=2 / b_adapt=2 / b_bias=0 / direct=1 / weightb=1 / open_gop=0 / weightp=2 / keyint=250 / keyint_min=23 / scenecut=40 / intra_refresh=0 / rc_lookahead=40 / rc=crf / mbtree=0 / crf=16.4000 / qcomp=0.65 / qpmin=0:0:0 / qpmax=69:69:69 / qpstep=4 / vbv_maxrate=50000 / vbv_bufsize=62500 / crf_max=0.0 / nal_hrd=none / filler=0 / ip_ratio=1.35 / pb_ratio=1.30 / aq=3:0.80 / aq-sensitivity=10.00 / aq-factor=1.00:1.00:1.00 / aq2=0 / aq3=0
Language : English
Default : Yes
Forced : No
Audio #1
ID : 2
Format : AC-3
Format/Info : Audio Coding 3
Mode extension : CM (complete main)
Format settings, Endianness : Big
Codec ID : A_AC3
Duration : 1h 23mn
Bit rate mode : Constant
Bit rate : 448 Kbps
Channel(s) : 6 channels
Channel positions : Front: L C R, Side: L R, LFE
Sampling rate : 48.0 KHz
Compression mode : Lossy
Stream size : 266 MiB (9%)
Title : Dub, AC3 5.1 ~448 kbps
Language : Russian
Default : Yes
Forced : No
Audio #2
ID : 3
Format : AC-3
Format/Info : Audio Coding 3
Mode extension : CM (complete main)
Format settings, Endianness : Big
Codec ID : A_AC3
Duration : 1h 23mn
Bit rate mode : Constant
Bit rate : 448 Kbps
Channel(s) : 6 channels
Channel positions : Front: L C R, Side: L R, LFE
Sampling rate : 48.0 KHz
Compression mode : Lossy
Stream size : 266 MiB (9%)
Title : Original, AC3 5.1 ~448 kbps
Language : English
Default : No
Forced : No
Text #1
ID : 4
Format : UTF-8
Codec ID : S_TEXT/UTF8
Codec ID/Info : UTF-8 Plain Text
Title : forced
Language : Russian
Default : Yes
Forced : No
Text #2
ID : 5
Format : UTF-8
Codec ID : S_TEXT/UTF8
Codec ID/Info : UTF-8 Plain Text
Language : Russian
Default : No
Forced : No
Text #3
ID : 6
Format : UTF-8
Codec ID : S_TEXT/UTF8
Codec ID/Info : UTF-8 Plain Text
Language : English
Default : No
Forced : No
Text #4
ID : 7
Format : UTF-8
Codec ID : S_TEXT/UTF8
Codec ID/Info : UTF-8 Plain Text
Title : SDH
Language : English
Default : No
Forced : No
Menu
00:00:00.000 : en:Chapter 01
00:06:54.331 : en:Chapter 02
00:11:00.994 : en:Chapter 03
00:16:25.735 : en:Chapter 04
00:21:37.630 : en:Chapter 05
00:26:43.727 : en:Chapter 06
00:31:46.863 : en:Chapter 07
00:36:48.706 : en:Chapter 08
00:41:57.056 : en:Chapter 09
00:46:54.979 : en:Chapter 10
00:52:19.595 : en:Chapter 11
00:57:28.487 : en:Chapter 12
01:01:27.851 : en:Chapter 13
01:06:16.139 : en:Chapter 14
01:11:52.099 : en:Chapter 15
01:16:25.873 : en:Chapter 16

x264

x264 [info]: frame I:1362 Avg QP:14.96 size: 86733
x264 [info]: frame P:28541 Avg QP:15.67 size: 38423
x264 [info]: frame B:89713 Avg QP:18.31 size: 13418
x264 [info]: consecutive B-frames: 3.5% 3.6% 8.4% 32.4% 16.5% 25.1% 4.7% 2.9% 1.2% 0.5% 0.4% 0.6% 0.2%
x264 [info]: mb I I16..4: 3.2% 75.7% 21.1%
x264 [info]: mb P I16..4: 1.3% 21.6% 3.6% P16..4: 27.5% 26.2% 16.7% 0.0% 0.0% skip: 3.1%
x264 [info]: mb B I16..4: 0.1% 2.2% 0.5% B16..8: 37.6% 18.0% 5.7% direct: 6.1% skip:29.7% L0:43.2% L1:41.3% BI:15.5%
x264 [info]: 8x8 transform intra:79.9% inter:60.0%
x264 [info]: coded y,uvDC,uvAC intra: 89.4% 89.5% 74.7% inter: 32.0% 22.9% 6.9%
x264 [info]: i16 v,h,dc,p: 30% 16% 6% 49%
x264 [info]: i8 v,h,dc,ddl,ddr,vr,hd,vl,hu: 15% 11% 8% 8% 11% 11% 12% 11% 13%
x264 [info]: i4 v,h,dc,ddl,ddr,vr,hd,vl,hu: 24% 9% 4% 8% 13% 12% 12% 9% 11%
x264 [info]: i8c dc,h,v,p: 43% 25% 18% 15%
x264 [info]: Weighted P-Frames: Y:3.1% UV:2.0%
x264 [info]: ref P L0: 50.4% 11.2% 14.7% 6.6% 4.7% 3.8% 2.8% 1.8% 1.4% 1.4% 1.2% 0.1% 0.0%
x264 [info]: ref B L0: 76.6% 10.2% 5.0% 2.5% 1.8% 1.4% 1.1% 0.7% 0.5% 0.2%
x264 [info]: ref B L1: 95.2% 4.8%
x264 [info]: kb/s:3878.16

Скриншоты

с названием

Поправил сабы, просьба перекачать торрент.
[Profile]  [PM] 
Display posts:    
Reply to topic

Current time is: 25-Jul 06:46

All times are UTC + 2



You cannot post new topics in this forum
You cannot reply to topics in this forum
You cannot edit your posts in this forum
You cannot delete your posts in this forum
You cannot vote in polls in this forum
You cannot attach files in this forum
You cannot download files in this forum