Никогда не сдавайся 3 / Never Back Down: No Surrender (Майкл Джей Уайт / Michael Jai White) [2016, США, боевик, WEB-DLRip-AVC] MVO (iTunes) + Sub Rus, Eng + Original Eng

Reply to topic
 
Author
Message

Satyr ®

Gender: Unknown

Longevity: 11 years

Posts: 15401

Reputation: 55 [+] [-]

Satyr · Post 11-Sep-2016 01:22

[Quote] 

Никогда не сдавайся 3 / Never Back Down: No Surrender- Страна: США
Жанр: боевик
Год выпуска: 2016
Продолжительность: 01:41:23-Перевод: Профессиональный (многоголосый закадровый) (iTunes)
Cубтитры: русские, английскиеОригинальная аудиодорожка: английский-Режиссер: Майкл Джей Уайт / Michael Jai White
В ролях: Майкл Джей Уайт, Джош Барнетт, Джиллиан Уайт, Йанин Висмитананда, Эсай Моралес, Стивен Квадрос, Нэйтан Джонс, Брахим Ачаббаке, Рон Смуренбург, Тони Джа
Описание: Продолжение бойцовской франшизы о состязаниях по смешанным единоборствам и сопутствующих им закулисных страстях. Экс-звезда Кейс Уокер возвращается на ринг за очередной победой, но старой школе в его лице предстоит потягаться с новой школой.- -Качество видео: WEB-DLRip-AVC [WEB-DL 1080p / NEVER_BACK_DOWN_NS_WDL_1080p-BLUEBIRD]
Формат видео: MKV
Видео: AVC, 1152*646 (16:9), 2549 kb/s, 23.976 fps, 0.143 bit/pixel
Аудио 1: AC3, 48.0 KHz, 384 Kbps, 5.1 ch [Rus]
Аудио 2: AAC, 48.0 KHz, 157 Kbps, 2.0 ch [Eng]
Формат субтитров: softsub (SRT)

MediaInfo

General
Unique ID : 219995019310985366055066834336553263653 (0xA5817FE13E9407059B9C7DF9014A6225)
Complete name : C:\ppol\Никогда не сдавайся 3 (Never Back Down No Surrender) 2016.mkv
Format : Matroska
Format version : Version 4 / Version 2
File size : 2.19 GiB
Duration : 1 h 41 min
Overall bit rate : 3 092 kb/s
Encoded date : UTC 2016-07-22 17:27:28
Writing application : mkvmerge v9.2.0 ('Photograph') 32bit
Writing library : libebml v1.3.3 + libmatroska v1.4.4
Cover : Yes
Attachments : cover.png
Video
ID : 1
Format : AVC
Format/Info : Advanced Video Codec
Format profile : High@L4.1
Format settings, CABAC : Yes
Format settings, ReFrames : 8 frames
Codec ID : V_MPEG4/ISO/AVC
Duration : 1 h 41 min
Bit rate : 2 549 kb/s
Width : 1 152 pixels
Height : 646 pixels
Display aspect ratio : 16:9
Frame rate mode : Constant
Frame rate : 23.976 (24000/1001) FPS
Color space : YUV
Chroma subsampling : 4:2:0
Bit depth : 8 bits
Scan type : Progressive
Bits/(Pixel*Frame) : 0.143
Stream size : 1.80 GiB (82%)
Title : MVO (iTunes)
Writing library : x264 core 148 r2638 7599210
Encoding settings : cabac=1 / ref=8 / deblock=1:-1:-1 / analyse=0x3:0x113 / me=umh / subme=9 / psy=1 / psy_rd=1.00:0.15 / mixed_ref=1 / me_range=24 / chroma_me=1 / trellis=1 / 8x8dct=1 / cqm=0 / deadzone=21,11 / fast_pskip=1 / chroma_qp_offset=-3 / threads=6 / lookahead_threads=1 / sliced_threads=0 / nr=0 / decimate=1 / interlaced=0 / bluray_compat=0 / constrained_intra=0 / bframes=8 / b_pyramid=2 / b_adapt=2 / b_bias=0 / direct=3 / weightb=1 / open_gop=0 / weightp=2 / keyint=240 / keyint_min=23 / scenecut=40 / intra_refresh=0 / rc_lookahead=50 / rc=2pass / mbtree=1 / bitrate=2549 / ratetol=1.0 / qcomp=0.60 / qpmin=0 / qpmax=69 / qpstep=4 / cplxblur=20.0 / qblur=0.5 / vbv_maxrate=62500 / vbv_bufsize=78125 / nal_hrd=none / filler=0 / ip_ratio=1.40 / aq=1:1.00
Language : Russian
Default : Yes
Forced : No
Audio #1
ID : 2
Format : AC-3
Format/Info : Audio Coding 3
Mode extension : CM (complete main)
Format settings, Endianness : Big
Codec ID : A_AC3
Duration : 1 h 41 min
Bit rate mode : Constant
Bit rate : 384 kb/s
Channel(s) : 6 channels
Channel positions : Front: L C R, Side: L R, LFE
Sampling rate : 48.0 kHz
Frame rate : 31.250 FPS (1536 spf)
Compression mode : Lossy
Stream size : 278 MiB (12%)
Title : MVO
Language : Russian
Default : Yes
Forced : No
Audio #2
ID : 3
Format : AAC
Format/Info : Advanced Audio Codec
Format profile : LC
Codec ID : A_AAC
Duration : 1 h 41 min
Bit rate : 157 kb/s
Channel(s) : 2 channels
Channel positions : Front: L R
Sampling rate : 48.0 kHz
Frame rate : 46.875 FPS (1024 spf)
Compression mode : Lossy
Stream size : 114 MiB (5%)
Title : Original
Language : English
Default : No
Forced : No
Text #1
ID : 4
Format : UTF-8
Codec ID : S_TEXT/UTF8
Codec ID/Info : UTF-8 Plain Text
Duration : 1 h 36 min
Bit rate : 100 b/s
Count of elements : 1436
Stream size : 71.3 KiB (0%)
Title : Full
Language : Russian
Default : No
Forced : No
Text #2
ID : 5
Format : UTF-8
Codec ID : S_TEXT/UTF8
Codec ID/Info : UTF-8 Plain Text
Duration : 1 h 36 min
Bit rate : 68 b/s
Count of elements : 1417
Stream size : 48.8 KiB (0%)
Title : Full
Language : English
Default : No
Forced : No
Menu
00:00:00.000 : en:1
00:05:48.807 : en:2
00:12:38.758 : en:3
00:18:37.032 : en:4
00:24:47.235 : en:5
00:31:19.585 : en:6
00:38:53.205 : en:7
00:45:19.966 : en:8
00:52:07.289 : en:9
00:59:06.625 : en:10
01:07:06.438 : en:11
01:12:34.641 : en:12
01:18:51.643 : en:13
01:24:17.593 : en:14
01:31:15.761 : en:15
01:36:48.051 : en:16

Скриншоты

-
[Profile]  [PM] 
Display posts:    
Reply to topic

Current time is: 25-Sep 04:59

All times are UTC + 2



You cannot post new topics in this forum
You cannot reply to topics in this forum
You cannot edit your posts in this forum
You cannot delete your posts in this forum
You cannot vote in polls in this forum
You cannot attach files in this forum
You cannot download files in this forum