Бэтмен против Супермена: На заре Справедливости / Batman v Superman: Dawn of Justice (Зак Снайдер / Zack Snyder) [2016, США, фантастика, боевик, приключения, BDRip-AVC] [Расширенная версия / Ultimate Edition] VO (Lord666)

Reply to topic
 
Author
Message

Satyr ®

Gender: Unknown

Longevity: 11 years

Posts: 15401

Reputation: 55 [+] [-]

Satyr · Post 11-Sep-2016 01:23

[Quote] 

Бэтмен против Супермена: На заре Справедливости (Режиссерская версия) / Batman v Superman: Dawn of Justice (Extended Ultimate Edition)
Страна: США
Жанр: фантастика, боевик, приключения
Год выпуска: 2016
Продолжительность: 03:02:33
Перевод: Одноголосый закадровый lord666
Cубтитры: нет
Режиссер: Зак Снайдер / Zack Snyder
В ролях: Генри Кавилл, Бен Аффлек, Галь Гадот, Эми Адамс, Джесси Айзенберг, Джереми Айронс, Дайан Лэйн, Лоренс Фишбёрн, Холли Хантер, Скут МакНэйри, Каллэн Мулвей, Тао Окамото, Брэндон Спинк, Лорен Коэн, Алан Д. Первин, Марк Эдвард Тейлор, Хью Магвайр, Майкл Шеннон, Ханна Дворкин, Тиффани Л. Эддисон
Описание: Опасаясь, что действия богоподобного супергероя так и останутся бесконтрольными, грозный и могущественный страж Готэм Сити бросает вызов самому почитаемому в наши дни спасителю Метрополиса, в то время как весь остальной мир решает, какой герой ему по-настоящему нужен. И пока Бэтмен и Супермен пребывают в состоянии войны друг с другом, возникает новая угроза, которая ставит человечество под самую большую опасность, с которой оно когда-либо сталкивалось.
Сэмпл: http://multi-up.com/1110823
Качество видео: BDRip-AVC [Batman v Superman Dawn of Justice 2016 Extended 1080p Blu-ray AVC TrueHD Atmos 7.1]
Формат видео: MKV
Видео: MPEG-4 AVC/H.264 / 1806 kbps / 1024x428 / 23.976 fps
Аудио: AC3 / 48 kHz / 384 kbps / 6 ch

MediaInfo

General
Unique ID : 252387890416232477983239091556881268031 (0xBDE023BB35899AA4A972309C0DCFFD3F)
Complete name : E:\Batman.v.Superman.Dawn.of.Justice.2016.Extended.mkv
Format : Matroska
Format version : Version 2
File size : 2.79 GiB
Duration : 3h 2mn
Overall bit rate : 2 191 Kbps
Encoded date : UTC 2016-07-21 06:50:00
Writing application : mkvmerge v5.8.0 ('No Sleep / Pillow') built on Sep 2 2012 15:37:04
Writing library : libebml v1.2.3 + libmatroska v1.3.0
Video
ID : 1
Format : AVC
Format/Info : Advanced Video Codec
Format profile : High@L4.1
Format settings, CABAC : Yes
Format settings, ReFrames : 10 frames
Codec ID : V_MPEG4/ISO/AVC
Duration : 3h 2mn
Bit rate : 1 806 Kbps
Width : 1 024 pixels
Height : 424 pixels
Display aspect ratio : 2.40:1
Frame rate mode : Constant
Frame rate : 23.976 (24000/1001) fps
Color space : YUV
Chroma subsampling : 4:2:0
Bit depth : 8 bits
Scan type : Progressive
Bits/(Pixel*Frame) : 0.173
Stream size : 2.25 GiB (80%)
Writing library : x264 core 148 r2638 7599210
Encoding settings : cabac=1 / ref=10 / deblock=1:-3:-3 / analyse=0x3:0x133 / me=umh / subme=10 / psy=1 / psy_rd=1.00:0.10 / mixed_ref=1 / me_range=32 / chroma_me=1 / trellis=2 / 8x8dct=1 / cqm=0 / deadzone=21,11 / fast_pskip=0 / chroma_qp_offset=-3 / threads=6 / lookahead_threads=1 / sliced_threads=0 / nr=0 / decimate=1 / interlaced=0 / bluray_compat=0 / constrained_intra=0 / bframes=10 / b_pyramid=2 / b_adapt=2 / b_bias=0 / direct=3 / weightb=1 / open_gop=0 / weightp=2 / keyint=240 / keyint_min=22 / scenecut=40 / intra_refresh=0 / rc_lookahead=40 / rc=2pass / mbtree=1 / bitrate=1806 / ratetol=1.0 / qcomp=0.60 / qpmin=10 / qpmax=51 / qpstep=4 / cplxblur=20.0 / qblur=0.5 / vbv_maxrate=62500 / vbv_bufsize=78125 / nal_hrd=none / filler=0 / ip_ratio=1.40 / aq=1:1.00
Default : Yes
Forced : No
Statistics Tags Issue : mkvmerge v8.5.2 ('Crosses') 32bit 2016-07-21 01:21:31 / mkvmerge v5.8.0 ('No Sleep / Pillow') built on Sep 2 2012 15:37:04 2016-07-21 06:50:00
FromStats_BitRate : 1805273
FromStats_Duration : 03:02:33.651000000
FromStats_FrameCount : 262625
FromStats_StreamSize : 2471792462
Audio
ID : 2
Format : AC-3
Format/Info : Audio Coding 3
Mode extension : CM (complete main)
Format settings, Endianness : Big
Codec ID : A_AC3
Duration : 3h 2mn
Bit rate mode : Constant
Bit rate : 384 Kbps
Channel(s) : 6 channels
Channel positions : Front: L C R, Side: L R, LFE
Sampling rate : 48.0 KHz
Frame rate : 31.250 fps (1536 spf)
Compression mode : Lossy
Stream size : 501 MiB (18%)
Title : VO lord666
Language : Russian
Default : Yes
Forced : No

Скриншот c названием фильма

Скриншоты

[
[Profile]  [PM] 
Display posts:    
Reply to topic

Current time is: 25-Sep 05:21

All times are UTC + 2



You cannot post new topics in this forum
You cannot reply to topics in this forum
You cannot edit your posts in this forum
You cannot delete your posts in this forum
You cannot vote in polls in this forum
You cannot attach files in this forum
You cannot download files in this forum