Приходит дракон / A Dragon Arrives! (Мани Хагиги / Mani Haghighi) [2016, Иран, Ужасы, детектив, приключения, WEB-DLRip] MVO (iTunes)

Reply to topic
 
Author
Message

Satyr ®

Gender: Unknown

Longevity: 11 years

Posts: 15401

Reputation: 55 [+] [-]

Satyr · Post 11-Sep-2016 01:23

[Quote] 

Приходит дракон / A Dragon Arrives!
Страна: Иран
Жанр: Ужасы, детектив, приключения
Год выпуска: 2016
Продолжительность: 01:43:11
Перевод: Профессиональный (многоголосый закадровый) iTunes
Cубтитры: нет
Режиссер: Мани Хагиги / Mani Haghighi
В ролях: Амир Джадиди, Эхсан Гударзи, Гомаюн Жанизадех, Надер Фаллах, Али Багери, Киана Таджаммоль
Описание: 1965 год, остров Кешм. Оранжевый Шевроле Импала останавливается у старого кладбища посреди пустыни — там внутри заброшенного корабля покончил с собой политзаключенный. Местные поговаривают о подземном драконе: земля на кладбище содрогается, чтобы принять тело. Одетые с иголочки детектив, звукорежиссёр и геолог приезжают на место необъяснимых событий, чтобы изучить природные аномалии и разобраться в преступлении. Троица не без увлечения следует абсурдным законам острова. Полвека спустя в архивах найдут записи этого путешествия, а вместе с ними — и показания детективов на допросе. Выходит, все трое были арестованы, а материалы засекречены, но почему? Дела минувших дней станут поводом для нового расследования, где найдется место и роковой женщине со шпионским прошлым, и мистификаторам, и гипнотической по красоте электронной музыке.
Сэмпл: http://sendfile.su/1251770
Качество видео: WEB-DLRip
Формат видео: AVI
Видео: 720x304 (2.37:1), 25 fps, XviD build 73 ~2020 kbps avg, 0.37 bit/pixel
Аудио: Dolby AC3 48000Hz 6ch 384kbps

MediaInfo

General
Complete name : E:\Zona Downloads\A.Dragon.Arrives!.2016.WEB-DLRip.1.46Gb.MegaPeer.avi
Format : AVI
Format/Info : Audio Video Interleave
File size : 1.46 GiB
Duration : 1h 43mn
Overall bit rate : 2 029 Kbps
Video
ID : 0
Format : MPEG-4 Visual
Format profile : Advanced Simple@L5
Format settings, BVOP : 1
Format settings, QPel : No
Format settings, GMC : No warppoints
Format settings, Matrix : Custom
Codec ID : XVID
Codec ID/Hint : XviD
Duration : 1h 43mn
Bit rate : 1 637 Kbps
Width : 720 pixels
Height : 304 pixels
Display aspect ratio : 2.35:1
Frame rate : 25.000 fps
Color space : YUV
Chroma subsampling : 4:2:0
Bit depth : 8 bits
Scan type : Progressive
Compression mode : Lossy
Bits/(Pixel*Frame) : 0.299
Stream size : 1.18 GiB (81%)
Writing library : XviD 73
Audio
ID : 1
Format : AC-3
Format/Info : Audio Coding 3
Mode extension : CM (complete main)
Format settings, Endianness : Big
Codec ID : 2000
Duration : 1h 43mn
Bit rate mode : Constant
Bit rate : 384 Kbps
Channel(s) : 6 channels
Channel positions : Front: L C R, Side: L R, LFE
Sampling rate : 48.0 KHz
Bit depth : 16 bits
Compression mode : Lossy
Stream size : 283 MiB (19%)
Alignment : Aligned on interleaves
Interleave, duration : 64 ms (1.60 video frames)
Interleave, preload duration : 192 ms
Title : iTunes

Скриншот c названием фильма

Скриншоты

[Profile]  [PM] 
Display posts:    
Reply to topic

Current time is: 26-Sep 04:55

All times are UTC + 2



You cannot post new topics in this forum
You cannot reply to topics in this forum
You cannot edit your posts in this forum
You cannot delete your posts in this forum
You cannot vote in polls in this forum
You cannot attach files in this forum
You cannot download files in this forum