Поп-звезда: Не переставай, не останавливайся / Popstar: never stop never stopping (Акива Шаффер / Akiva Schaffer, Йорма Такконе / Jorma Taccone) [2016, США, комедия, мюзикл, драма, HDRip] DVO

Reply to topic
 
Author
Message

Satyr ®

Online

Gender: Unknown

Longevity: 11 years

Posts: 15401

Reputation: 55 [+] [-]

Satyr · Post 11-Sep-2016 01:23

[Quote] 

Поп-звезда: Не переставай, не останавливайся / Popstar: never stop never stopping
Страна: США
Жанр: комедия, мюзикл, драма
Год выпуска: 2016
Продолжительность: 01:22:56
Перевод: Любительский (двухголосый закадровый) А. Глинский / Saturn Inc.
Cубтитры: китайские вшитые; русские - отдельно
Режиссер: Акива Шаффер, Йорма Такконе / Akiva Schaffer, Jorma Taccone
В ролях: Энди Сэмберг, Йорма Такконе, Акива Шаффер, Сара Сильверман, Майя Рудольф, Джоан Кьюсак
Описание: Сюжет:
Бывший участник рэп-группы Style Boyz, ныне скандальная звезда Conner4Real выпускает второй сольный альбом. Это самый ожидаемый релиз десятилетия. Но цифры продаж разочаровывают, и спонсор требует действий.
Менеджер Коннера приглашает на разогрев в турне восходящую звезду репера Хантера... Далее идет не менее избитая схема - интриги, скандалы, гениталии, и победная песня под занавес.
Впечатления:
Трио The Lonely Island (Hod Rod, SNL) дорвалось до действительно больших бабок и сделало прекрасную поделку в своем особенном тоне, но с Голливудским размахом. Чудесный стеб над музиндустрией (при этом количество камео музыкантов зашкаливает), в котором тупость персонажей граничит с космосом, выливается в бесконечно мимимишную финишную прямую и очаровывает силой всепобеждающей... дружбы. И музыки.
В сэмпле представлена самая крамольная сцена, а так фильм добрый.
Доп. информация: По релизу:
Субтитры пущены в основном на песни, потому как их понимание способствует пониманию сюжета и лучшему пищеварению.
Ждем белой версии, без "азиатской свинки" и тогда делаем многоголоску.
Сэмпл: http://sendfile.su/1251261
Качество видео: HDRip
Формат видео: AVI
Видео: XviD, MPEG-4, 720x304, 2.35:1, 25.000 fps, 2 196 Kbps
Аудио: MP3, 44.1kHz, 160 kbps, 2 channels, перевод
Аудио 2: AC-3, 48.0kHz, 128 kbps, 2 channels, Front: L R, english
Формат субтитров: softsub (SRT)
Доп. информация о субтитрах: русские - отдельные

MediaInfo

General
Complete name : C:\Users\Desktop\Popstar to upload\Popstar.2016.HDrip.avi
Format : AVI
Format/Info : Audio Video Interleave
File size : 1.45 GiB
Duration : 1h 22mn
Overall bit rate : 2 498 Kbps
Writing application : VirtualDubMod 1.5.10.2 (build 2540/release)
Writing library : VirtualDubMod build 2540/release
Video
ID : 0
Format : MPEG-4 Visual
Format profile : Advanced Simple@L5
Format settings, BVOP : 2
Format settings, QPel : No
Format settings, GMC : No warppoints
Format settings, Matrix : Default (H.263)
Codec ID : XVID
Codec ID/Hint : XviD
Duration : 1h 22mn
Bit rate : 2 196 Kbps
Width : 720 pixels
Height : 304 pixels
Display aspect ratio : 2.35:1
Frame rate : 25.000 fps
Color space : YUV
Chroma subsampling : 4:2:0
Bit depth : 8 bits
Scan type : Progressive
Compression mode : Lossy
Bits/(Pixel*Frame) : 0.401
Stream size : 1.27 GiB (88%)
Writing library : XviD 65
Audio #1
ID : 1
Format : MPEG Audio
Format version : Version 1
Format profile : Layer 3
Mode : Joint stereo
Mode extension : MS Stereo
Codec ID : 55
Codec ID/Hint : MP3
Duration : 1h 22mn
Bit rate mode : Constant
Bit rate : 160 Kbps
Channel(s) : 2 channels
Sampling rate : 44.1 KHz
Compression mode : Lossy
Stream size : 94.9 MiB (6%)
Alignment : Split accross interleaves
Interleave, duration : 40 ms (1.00 video frame)
Interleave, preload duration : 500 ms
Writing library : LAME3.98.4ЄЄЄЄЄЄЄЄЄЄ
Audio #2
ID : 2
Format : AC-3
Format/Info : Audio Coding 3
Mode extension : CM (complete main)
Format settings, Endianness : Big
Codec ID : 2000
Duration : 1h 22mn
Bit rate mode : Constant
Bit rate : 128 Kbps
Channel(s) : 2 channels
Channel positions : Front: L R
Sampling rate : 48.0 KHz
Bit depth : 16 bits
Compression mode : Lossy
Stream size : 75.9 MiB (5%)
Alignment : Aligned on interleaves
Interleave, duration : 40 ms (1.00 video frame)
Interleave, preload duration : 512 ms

Скриншот c названием фильма

Скриншоты

[Profile]  [PM] 
Display posts:    
Reply to topic

Current time is: 01-Oct 07:27

All times are UTC + 2



You cannot post new topics in this forum
You cannot reply to topics in this forum
You cannot edit your posts in this forum
You cannot delete your posts in this forum
You cannot vote in polls in this forum
You cannot attach files in this forum
You cannot download files in this forum