Преступник / Criminal (Ариэль Вромен / Ariel Vromen) [2016, Великобритания, США, фантастика, боевик, триллер, BDRip-AVC] Dub + Original + Sub (eng)

Reply to topic
 
Author
Message

Satyr ®

Online

Gender: Unknown

Longevity: 11 years

Posts: 15401

Reputation: 55 [+] [-]

Satyr · Post 11-Sep-2016 01:23

[Quote] 

Преступник / Criminal«The CIA's last hope is in the mind of a criminal»- Страна: Великобритания, США
Жанр: фантастика, боевик, триллер, драма, криминал, детектив
Год выпуска: 2016
Продолжительность: 01:53:34
Перевод: Профессиональный (дублированный) (iTunes)
Оригинальная аудиодорожка: английский
Субтитры: английские
Навигация по главам: есть
Режиссер: Ариэль Вромен / Ariel Vromen
В ролях: Кевин Костнер (Jericho Stewart), Гари Олдман (Quaker Wells), Томми Ли Джонс (Dr. Franks), Райан Рейнольдс (Bill Pope), Элис Ив (Marta Lynch), Галь Гадот (Jill Pope), Хорди Молья (Xavier Heimdahl), Майкл Питт (Jan Stroop), Амори Ноласко (Esteban Ruiza), Антье Трауэ (Elsa Mueller), Скотт Эдкинс (Pete Greensleeves), Лара Дэкаро (Emma Pope)
Описание: В последней отчаянной попытке остановить катастрофу мирового масштаба генетики осуществляют невероятную операцию по вживлению воспоминаний и умений погибшего оперативника ЦРУ в тело опасного заключенного с надеждой, что тот доведет до конца прерванную миссию агента.- -Качество: BDRip-AVC (исходник - BDRemux|CRIMINAL_REMUX_HDCLUB)
Формат видео: MKV
Видео: x264, 1152x482 (2.40:1), 23,976 fps, ~1977 kbps, 0.149 bit/pixel
Аудио 1: 48 kHz, AC3 Dolby Digital, 3/2 (L,C,R,l,r) + LFE ch, ~384 kbps [русский]
Аудио 2: 48 kHz, AC3 Dolby Digital, 3/2 (L,C,R,l,r) + LFE ch, ~384 kbps [английский]
Формат субтитров: softsub (SRT)-

MediaInfo | x264 log

Format : Matroska
Format version : Version 4 / Version 2
File size : 2.18 GiB
Duration : 1h 53mn
Overall bit rate : 2 744 Kbps
Movie name : Преступник / Criminal (2016) :: AFM ::
Encoded date : UTC 2016-07-19 15:02:41
Writing application : mkvmerge v8.3.0 ('Over the Horizon') 32bit
Writing library : libebml v1.3.1 + libmatroska v1.4.2
Video
ID : 1
Format : AVC
Format/Info : Advanced Video Codec
Format profile : High@L4.1
Format settings, CABAC : Yes
Format settings, ReFrames : 11 frames
Codec ID : V_MPEG4/ISO/AVC
Duration : 1h 53mn
Bit rate : 1 977 Kbps
Width : 1 152 pixels
Height : 482 pixels
Display aspect ratio : 2.40:1
Frame rate mode : Constant
Frame rate : 23.976 fps
Color space : YUV
Chroma subsampling : 4:2:0
Bit depth : 8 bits
Scan type : Progressive
Bits/(Pixel*Frame) : 0.149
Stream size : 1.52 GiB (70%)
Title : BDRip by AFM [torrentsland.com.ua]
Writing library : x264 core 148 r2705+54 9f484c1 t_mod_Custom [8-bit@all X86_64]
Encoding settings : cabac=1 / ref=11 / deblock=1:-2:-2 / analyse=0x3:0x113 / me=umh / subme=10 / psy=1 / fade_compensate=0.00 / psy_rd=1.00:0.00 / mixed_ref=1 / me_range=32 / chroma_me=1 / trellis=2 / 8x8dct=1 / cqm=0 / deadzone=21,11 / fast_pskip=0 / chroma_qp_offset=-2 / threads=6 / lookahead_threads=1 / sliced_threads=0 / nr=0 / decimate=0 / interlaced=0 / bluray_compat=0 / constrained_intra=0 / fgo=0 / bframes=15 / b_pyramid=2 / b_adapt=2 / b_bias=0 / direct=3 / weightb=1 / open_gop=0 / weightp=2 / keyint=250 / keyint_min=23 / scenecut=40 / intra_refresh=0 / rc_lookahead=40 / rc=2pass / mbtree=0 / bitrate=1977 / ratetol=1.0 / qcomp=0.65 / qpmin=0:0:0 / qpmax=69:69:69 / qpstep=4 / cplxblur=20.0 / qblur=0.5 / vbv_maxrate=50000 / vbv_bufsize=62500 / nal_hrd=none / filler=0 / ip_ratio=1.35 / pb_ratio=1.30 / aq=3:0.80 / aq-sensitivity=10.00 / aq-factor=1.00:1.00:1.00 / aq2=0 / aq3=0
Language : English
Default : Yes
Forced : No
Audio #1
ID : 2
Format : AC-3
Format/Info : Audio Coding 3
Mode extension : CM (complete main)
Format settings, Endianness : Big
Codec ID : A_AC3
Duration : 1h 53mn
Bit rate mode : Constant
Bit rate : 384 Kbps
Channel(s) : 6 channels
Channel positions : Front: L C R, Side: L R, LFE
Sampling rate : 48.0 KHz
Compression mode : Lossy
Stream size : 312 MiB (14%)
Title : Dub, AC3 5.1 ~384 kbps
Language : Russian
Default : Yes
Forced : No
Audio #2
ID : 3
Format : AC-3
Format/Info : Audio Coding 3
Mode extension : CM (complete main)
Format settings, Endianness : Big
Codec ID : A_AC3
Duration : 1h 53mn
Bit rate mode : Constant
Bit rate : 384 Kbps
Channel(s) : 6 channels
Channel positions : Front: L C R, Side: L R, LFE
Sampling rate : 48.0 KHz
Compression mode : Lossy
Stream size : 312 MiB (14%)
Title : Original, AC3 5.1 ~384 kbps
Language : English
Default : No
Forced : No
Text
ID : 4
Format : UTF-8
Codec ID : S_TEXT/UTF8
Codec ID/Info : UTF-8 Plain Text
Language : English
Default : No
Forced : No
Menu
00:00:00.000 : en:Chapter 1
00:10:41.264 : en:Chapter 2
00:15:32.264 : en:Chapter 3
00:23:45.339 : en:Chapter 4
00:30:56.561 : en:Chapter 5
00:36:01.367 : en:Chapter 6
00:45:36.315 : en:Chapter 7
00:48:48.507 : en:Chapter 8
00:54:51.454 : en:Chapter 9
01:01:46.244 : en:Chapter 10
01:08:32.608 : en:Chapter 11
01:16:11.608 : en:Chapter 12
01:22:20.143 : en:Chapter 13
01:29:52.011 : en:Chapter 14
01:36:46.091 : en:Chapter 15
01:42:08.497 : en:Chapter 16
01:53:34.599 : en:Chapter 17

x264

x264 [info]: frame I:1239 Avg QP:14.73 size: 68436
x264 [info]: frame P:38983 Avg QP:18.08 size: 21148
x264 [info]: frame B:123170 Avg QP:20.32 size: 6271
x264 [info]: consecutive B-frames: 3.5% 4.5% 14.3% 16.5% 18.2% 27.3% 5.4% 3.4% 1.5% 1.1% 0.8% 0.4% 0.9% 0.9% 0.5% 0.9%
x264 [info]: mb I I16..4: 9.6% 73.1% 17.3%
x264 [info]: mb P I16..4: 3.2% 11.0% 2.2% P16..4: 40.4% 24.8% 11.5% 0.0% 0.0% skip: 6.9%
x264 [info]: mb B I16..4: 0.2% 0.7% 0.2% B16..8: 42.2% 10.6% 2.3% direct: 3.8% skip:40.2% L0:45.8% L1:46.1% BI: 8.1%
x264 [info]: 8x8 transform intra:68.1% inter:66.0%
x264 [info]: direct mvs spatial:97.1% temporal:2.9%
x264 [info]: coded y,uvDC,uvAC intra: 72.0% 75.2% 50.9% inter: 19.1% 17.0% 7.4%
x264 [info]: i16 v,h,dc,p: 57% 10% 5% 28%
x264 [info]: i8 v,h,dc,ddl,ddr,vr,hd,vl,hu: 18% 9% 7% 9% 12% 12% 12% 10% 11%
x264 [info]: i4 v,h,dc,ddl,ddr,vr,hd,vl,hu: 24% 7% 4% 9% 13% 12% 11% 9% 10%
x264 [info]: i8c dc,h,v,p: 37% 26% 22% 15%
x264 [info]: Weighted P-Frames: Y:2.4% UV:0.9%
x264 [info]: ref P L0: 53.3% 9.3% 15.3% 5.7% 4.6% 3.1% 2.9% 1.6% 1.5% 1.2% 1.2% 0.1% 0.0%
x264 [info]: ref B L0: 74.1% 11.3% 5.6% 2.6% 1.9% 1.7% 1.1% 0.9% 0.5% 0.2%
x264 [info]: ref B L1: 94.8% 5.2%
x264 [info]: kb/s:1974.04

Скриншоты

с названием

[Profile]  [PM] 
Display posts:    
Reply to topic

Current time is: 26-Sep 03:05

All times are UTC + 2



You cannot post new topics in this forum
You cannot reply to topics in this forum
You cannot edit your posts in this forum
You cannot delete your posts in this forum
You cannot vote in polls in this forum
You cannot attach files in this forum
You cannot download files in this forum