Они наблюдают / They\'re Watching (Джей Лендер / Jay Lender / Мика Райт / Micah Wright) [2016, США, Румыния, Ужасы, триллер, комедия, WEB-DLRip] MVO (ViruseProject)

Reply to topic
 
Author
Message

Satyr ®

Gender: Unknown

Longevity: 11 years

Posts: 15401

Reputation: 55 [+] [-]

Satyr · Post 11-Sep-2016 01:23

[Quote] 

Они наблюдают / They're Watching
Страна: США, Румыния
Жанр: Ужасы, триллер, комедия
Год выпуска: 2016
Продолжительность: 01:34:10
Перевод: Любительский (многоголосый закадровый) ViruseProject
Cубтитры: нет
Режиссер: Джей Лендер / Jay Lender / Мика Райт / Micah Wright
В ролях: Бриджид Брэнно, Крис Лемке, Кэрри Гензел, Дэвид Алпей, Дмитрий Дьяченко, Миа Фэйт, Кристиан Балинт
Описание: Съёмочная группа американского телешоу для съемок очередного эпизода приезжает в глухую деревню в Молдове. Телевизионщики думают, что отсутствие привычного латте и бесплатного вайфая в гостинице — максимум неприятностей, которые их ожидают. Но на деле съемки оборачиваются кровавым кошмаром, да и местные жители не радушно их встречают. Они совсем не рады, что об их секретах узнает большой мир.
Внимание перезалив : -- Сделал рип с более качественного исходника,а также заменен звук
-- Присутствует (частично) ненормативная лексика .
Сэмпл: http://multi-up.com/1110520
Качество видео: WEB-DLRip (Исходник WEB-DL 720p)
Формат видео: AVI
Видео: XviD 1.2.1, 688x384, (16:9), 23,976 fps, 1801 Кбит/с, 8 бит
Аудио: Русский (AC3, 6 ch (Front: L C R, Side: L R, LFE), 48,0 KHz, 348 Kbps)

MediaInfo

Общее
Полное имя : F:\Видеофильмы\В и д е о\Они наблюдают (ужасы комедия 2016г).avi
Формат : AVI
Формат/Информация : Audio Video Interleave
Размер файла : 1,44 Гбайт
Продолжительность : 1 ч. 34 м.
Общий поток : 2194 Кбит/сек
Программа кодирования : VirtualDubMod 1.5.10.3 | www.virtualdub-fr.org || (build 2550/release)
Библиотека кодирования : VirtualDubMod build 2550/release
Видео
Идентификатор : 0
Формат : MPEG-4 Visual
Профиль формата : Advanced Simple@L5
Параметр BVOP формата : 2
Параметр QPel формата : Нет
Параметр GMC формата : Без точки перехода
Параметр матрицы формата : Выборочная
Идентификатор кодека : XVID
Идентификатор кодека/Подсказка : XviD
Продолжительность : 1 ч. 34 м.
Битрейт : 1801 Кбит/сек
Ширина : 688 пикселей
Высота : 384 пикселя
Соотношение сторон : 16:9
Частота кадров : 23,976 (23976/1000) кадра/сек
Цветовое пространство : YUV
Субдискретизация насыщенности : 4:2:0
Битовая глубина : 8 бит
Тип развёртки : Прогрессивная
Метод сжатия : С потерями
Бит/(Пиксели*Кадры) : 0.284
Размер потока : 1,18 Гбайт (82%)
Библиотека кодирования : XviD 1.2.1 (UTC 2008-12-04)
Аудио
Идентификатор : 1
Формат : AC-3
Формат/Информация : Audio Coding 3
Расширение режима : CM (complete main)
Параметр Endianness формата : Big
Идентификатор кодека : 2000
Продолжительность : 1 ч. 34 м.
Вид битрейта : Постоянный
Битрейт : 384 Кбит/сек
Каналы : 6 каналов
Расположение каналов : Front: L C R, Side: L R, LFE
Частота : 48,0 КГц
Частота кадров : 31,250 кадров/сек (1536 spf)
Метод сжатия : С потерями
Размер потока : 259 Мбайт (18%)
Выравнивание : Разделение по промежуткам
Продолжительность промежутка : 42 мс. (1,00 видеокадр)
Время предзагрузки промежутка : 500 мс.

Скриншот c названием фильма

Скриншоты

[Profile]  [PM] 
Display posts:    
Reply to topic

Current time is: 21-Sep 04:19

All times are UTC + 2



You cannot post new topics in this forum
You cannot reply to topics in this forum
You cannot edit your posts in this forum
You cannot delete your posts in this forum
You cannot vote in polls in this forum
You cannot attach files in this forum
You cannot download files in this forum