Большой Босс / The Boss (Бен Фэлкоун / Ben Falcone) [2016, США, Комедия, HDRip] Dub (iTunes)

Reply to topic
 
Author
Message

Satyr ®

Gender: Unknown

Longevity: 11 years

Posts: 15401

Reputation: 55 [+] [-]

Satyr · Post 11-Sep-2016 01:23

[Quote] 

Большой Босс / The Boss
Страна: США
Жанр: Комедия
Год выпуска: 2016
Продолжительность: 01:38:49
Перевод: Профессиональный (дублированный) iTunes
Cубтитры: нет
Режиссер: Бен Фэлкоун / Ben Falcone
В ролях: Мелисса МакКарти, Кристен Белл, Питер Динклэйдж, Элла Андерсон, Тайлер Лабин, Кэти Бэйтс, Сесили Стронг, Мэри Сон, Кристен Шаал, Eva Peterson
Описание: В центре сюжета бизнес-леди, промышленный магнат, очутившаяся в тюрьме, погорев на теневых сделках. Отсидев положенное, женщина мечтает искупить вину и сменить статус мошенницы на всеобщую любимицу, только не все жертвы ее махинаций готовы пересмотреть свое отношение к ней.
Доп. информация: Релиз от Megapeer
Сэмпл: http://multi-up.com/1110498
Качество видео: HDRip
Формат видео: AVI
Видео: 656x352 (1.86:1), 23.976 fps, XviD build 73 ~921 kbps avg, 0.17 bit/pixel
Аудио: 48 kHz, MPEG Layer 3, 2 ch, ~128.00 kbps avg - iTunes

MediaInfo

ОбщееПолное имя                               : D:\загрузки\The.Boss.2016.HDRip.745MB.aviФормат                                   : AVIФормат/Информация                        : Audio Video InterleaveРазмер файла                             : 745 МбайтПродолжительность                        : 1 ч. 38 м.Общий поток                              : 1055 Кбит/сек
ВидеоИдентификатор : 0Формат : MPEG-4 VisualПрофиль формата : Advanced Simple@L5Параметр BVOP формата : 1Параметр QPel формата : НетПараметр GMC формата : Без точки переходаПараметр матрицы формата : ВыборочнаяИдентификатор кодека : XVIDИдентификатор кодека/Подсказка : XviDПродолжительность : 1 ч. 38 м.Битрейт : 921 Кбит/секШирина : 656 пикселейВысота : 352 пикселяСоотношение сторон : 1,85:1Частота кадров : 23,976 (24000/1001) кадра/секЦветовое пространство : YUVСубдискретизация насыщенности : 4:2:0Битовая глубина : 8 битТип развёртки : ПрогрессивнаяМетод сжатия : С потерямиБит/(Пиксели*Кадры) : 0.166Размер потока : 651 Мбайт (87%)Библиотека кодирования : XviD 73
АудиоИдентификатор : 1Формат : MPEG AudioВерсия формата : Version 1Профиль формата : Layer 3Режим : Joint stereoИдентификатор кодека : 55Идентификатор кодека/Подсказка : MP3Продолжительность : 1 ч. 38 м.Вид битрейта : ПостоянныйБитрейт : 128 Кбит/секКаналы : 2 каналаЧастота : 48,0 КГцМетод сжатия : С потерямиРазмер потока : 90,5 Мбайт (12%)Выравнивание : Соединение по промежуткамПродолжительность промежутка : 167 мс. (4,00 видеокадра)Время предзагрузки промежутка : 216 мс.Заголовок : iTunesБиблиотека кодирования : LAME3.99rНастройки программы : -m j -V 4 -q 2 -lowpass 17 -b 128

Скриншоты

[Profile]  [PM] 
Display posts:    
Reply to topic

Current time is: 19-Sep 10:53

All times are UTC + 2



You cannot post new topics in this forum
You cannot reply to topics in this forum
You cannot edit your posts in this forum
You cannot delete your posts in this forum
You cannot vote in polls in this forum
You cannot attach files in this forum
You cannot download files in this forum