Дивергент, глава 3: За стеной / Allegiant (Роберт Швентке / Robert Schwentke) [2016, США, фантастика, боевик, триллер, детектив, приключения, BDRip-AVC] Dub + Sub Eng + Original Eng

Reply to topic
 
Author
Message

Satyr ®

Gender: Unknown

Longevity: 11 years

Posts: 15401

Reputation: 55 [+] [-]

Satyr · Post 11-Sep-2016 01:23

[Quote] 

Дивергент, глава 3: За стеной / Allegiant«Break the boundaries of your world»- Страна: США
Жанр: фантастика, боевик, триллер, детектив, приключения
Год выпуска: 2016
Продолжительность: 02:00:33-Перевод: Профессиональный (дублированный)
Cубтитры: английские
Оригинальная аудиодорожка: английский-Режиссер: Роберт Швентке / Robert Schwentke
В ролях: Шейлин Вудли, Тео Джеймс, Энсел Элгорт, Зои Кравиц, Майлз Теллер, Джефф Дэниелс, Наоми Уоттс, Мэгги Кью, Билл Скарсгард, Кейнан Лонсдейл, Надиа Хилкер, Октавия Спенсер, Дэниэл Дэ Ким, Джонни Уэстон, Энди Бин, Рэй Стивенсон, Мекхай Файфер, Джозеф Дэвид-Джонс, Эшли Джадд, Джош Давендек
Описание: Трис и Фор впервые покидают город и своих близких и оказываются в опасном мире за стеной, отделяющей Чикаго, где им открывается шокирующая правда.
Они должны быстро разобраться, кому можно доверять, так как битва, разгорающаяся за стенами города, угрожает всему человечеству. Чтобы выжить, Трис придется сделать непростой выбор между мужеством, верностью, любовью и необходимостью идти на жертвы.- -Качество видео: BDRip-AVC [BDRemux / ALLEGIANT_REMUX_HDCLUB]
Формат видео: MKV
Видео: AVC, 1152*480 (2.40:1), 2 569 Kbps, 23.976 fps, 0.194 bit/pixel
Аудио 1: AC-3, 48.0 KHz, 448 Kbps, 5.1 ch [Rus]
Аудио 2: AC-3, 48.0 KHz, 448 Kbps, 5.1 ch [Eng]
Формат субтитров: softsub (SRT)

MediaInfo

General
Unique ID : 201896735700268379204541614849442648116 (0x97E3E59AF88CBA91879CD85CA8AB1034)
Complete name : C:\ppol\Дивергент, глава 3 - За стеной (Allegiant) 2016.mkv
Format : Matroska
Format version : Version 4 / Version 2
File size : 2.92 GiB
Duration : 2h 0mn
Overall bit rate : 3 467 Kbps
Encoded date : UTC 2016-07-18 03:28:12
Writing application : mkvmerge v9.2.0 ('Photograph') 32bit
Writing library : libebml v1.3.3 + libmatroska v1.4.4
Cover : Yes
Attachments : cover.jpg
Video
ID : 1
Format : AVC
Format/Info : Advanced Video Codec
Format profile : High@L4.1
Format settings, CABAC : Yes
Format settings, ReFrames : 10 frames
Codec ID : V_MPEG4/ISO/AVC
Duration : 2h 0mn
Bit rate : 2 569 Kbps
Width : 1 152 pixels
Height : 480 pixels
Display aspect ratio : 2.40:1
Frame rate mode : Constant
Frame rate : 23.976 (24000/1001) fps
Color space : YUV
Chroma subsampling : 4:2:0
Bit depth : 8 bits
Scan type : Progressive
Bits/(Pixel*Frame) : 0.194
Stream size : 2.16 GiB (74%)
Writing library : x264 core 148 r2638 7599210
Encoding settings : cabac=1 / ref=10 / deblock=1:-1:-1 / analyse=0x3:0x133 / me=umh / subme=10 / psy=1 / psy_rd=1.00:0.15 / mixed_ref=1 / me_range=32 / chroma_me=1 / trellis=2 / 8x8dct=1 / cqm=0 / deadzone=21,11 / fast_pskip=1 / chroma_qp_offset=-3 / threads=6 / lookahead_threads=1 / sliced_threads=0 / nr=0 / decimate=1 / interlaced=0 / bluray_compat=0 / constrained_intra=0 / bframes=10 / b_pyramid=2 / b_adapt=2 / b_bias=0 / direct=3 / weightb=1 / open_gop=0 / weightp=2 / keyint=240 / keyint_min=23 / scenecut=40 / intra_refresh=0 / rc_lookahead=60 / rc=2pass / mbtree=1 / bitrate=2569 / ratetol=1.0 / qcomp=0.60 / qpmin=0 / qpmax=69 / qpstep=4 / cplxblur=20.0 / qblur=0.5 / vbv_maxrate=62500 / vbv_bufsize=78125 / nal_hrd=none / filler=0 / ip_ratio=1.40 / aq=1:1.00
Default : Yes
Forced : No
Audio #1
ID : 2
Format : AC-3
Format/Info : Audio Coding 3
Mode extension : CM (complete main)
Format settings, Endianness : Big
Codec ID : A_AC3
Duration : 2h 0mn
Bit rate mode : Constant
Bit rate : 448 Kbps
Channel(s) : 6 channels
Channel positions : Front: L C R, Side: L R, LFE
Sampling rate : 48.0 KHz
Frame rate : 31.250 fps (1536 spf)
Compression mode : Lossy
Stream size : 386 MiB (13%)
Title : Dub
Language : Russian
Default : Yes
Forced : No
Audio #2
ID : 3
Format : AC-3
Format/Info : Audio Coding 3
Mode extension : CM (complete main)
Format settings, Endianness : Big
Codec ID : A_AC3
Duration : 2h 0mn
Bit rate mode : Constant
Bit rate : 448 Kbps
Channel(s) : 6 channels
Channel positions : Front: L C R, Side: L R, LFE
Sampling rate : 48.0 KHz
Frame rate : 31.250 fps (1536 spf)
Compression mode : Lossy
Stream size : 386 MiB (13%)
Title : Original
Language : English
Default : No
Forced : No
Text
ID : 4
Format : UTF-8
Codec ID : S_TEXT/UTF8
Codec ID/Info : UTF-8 Plain Text
Duration : 1h 48mn
Bit rate : 45 bps
Count of elements : 1151
Stream size : 36.6 KiB (0%)
Title : Full
Language : English
Default : No
Forced : No
Menu
00:00:00.000 : :Chapter 01
00:09:46.335 : :Chapter 02
00:16:54.303 : :Chapter 03
00:25:52.092 : :Chapter 04
00:32:45.212 : :Chapter 05
00:37:26.202 : :Chapter 06
00:45:49.537 : :Chapter 07
00:53:31.457 : :Chapter 08
00:58:18.244 : :Chapter 09
01:07:21.161 : :Chapter 10
01:13:46.712 : :Chapter 11
01:19:51.036 : :Chapter 12
01:26:40.235 : :Chapter 13
01:33:12.127 : :Chapter 14
01:40:24.059 : :Chapter 15
01:46:18.872 : :Chapter 16

Скриншоты

-
[Profile]  [PM] 
Display posts:    
Reply to topic

Current time is: 24-Jan 08:28

All times are UTC + 2



You cannot post new topics in this forum
You cannot reply to topics in this forum
You cannot edit your posts in this forum
You cannot delete your posts in this forum
You cannot vote in polls in this forum
You cannot attach files in this forum
You cannot download files in this forum