Бэтмен против Супермена: На заре справедливости / Batman v Superman: Dawn of Justice (Зак Снайдер / Zack Snyder) [2016, США, фантастика, боевик, приключения, BDRip-AVC] [Театральная версия / Theatrical Cut] Dub + Sub (rus)

Reply to topic
 
Author
Message

Satyr ®

Online

Gender: Unknown

Longevity: 15 years

Posts: 22035

Reputation: 56 [+] [-]

Satyr · Post 11-Sep-2016 01:23

[Quote] 

Бэтмен против Супермена: На заре справедливости
Batman v Superman: Dawn of Justice
«Who will win?»
Театральная версия / Theatrical Cut


Страна: США
Жанр: фантастика, боевик, приключения
Год выпуска: 2016
Продолжительность: 02:31:40
Перевод: Профессиональный (полное дублирование) [Blu-ray CEE]
Субтитры: русские (форсированные)
Оригинальная аудиодорожка: нет
Режиссер: Зак Снайдер / Zack Snyder
В ролях: Генри Кавилл, Бен Аффлек, Галь Гадот, Эми Адамс, Джесси Айзенберг, Джереми Айронс, Дайан Лэйн, Лоренс Фишбёрн, Холли Хантер, Скут МакНэри, Каллэн Мулвей, Тао Окамото
Описание:
Опасаясь, что действия богоподобного супергероя так и останутся бесконтрольными, грозный и могущественный страж Готэм Сити бросает вызов самому почитаемому в наши дни спасителю Метрополиса, в то время как весь остальной мир решает, какой герой ему по-настоящему нужен. И пока Бэтмен и Супермен пребывают в состоянии войны друг с другом, возникает новая угроза, которая ставит человечество под самую большую опасность, с которой оно когда-либо сталкивалось.


Автор рипа: stalkerok
Сэмпл
Качество видео: BDRip-AVC [Batman v Superman Dawn of Justice (2016) [Theatrical Cut] Blu-ray CEE 1080p AVC DD5.1 HDCLUB]
Формат видео: MKV
Видео: 1310 Кбит/сек, 888x370 (2.40:1), 23,976 кадр/сек, AVC
Аудио: русский, 64,0 Кбит/сек, 48,0 КГц / 24,0 КГц, 2 канала, AAC (HE-AAC / LC)
Навигация по главам: есть

MediaInfo

Общее
Уникальный идентификатор : 196593606506613029249400407584304470068 (0x93E68D263B450D7C9BDBF50E313B1834)
Полное имя : M:\2Rips\Batman v Superman Dawn of Justice\Batman.v.Superman.Dawn.of.Justice.2016.BDRip-AVC.Dub.1.45Gb.stalkerok.new-team.mkv
Формат : Matroska
Версия формата : Version 4 / Version 2
Размер файла : 1,46 Гбайт
Продолжительность : 2 ч. 31 м.
Общий поток : 1375 Кбит/сек
Название фильма : Batman v Superman: Dawn of Justice (2016) (Rip by stalkerok)
Дата кодирования : UTC 2016-07-17 12:15:14
Программа кодирования : mkvmerge v8.6.1 ('Flying') 64bit
Библиотека кодирования : libebml v1.3.3 + libmatroska v1.4.4
Видео
Идентификатор : 1
Формат : AVC
Формат/Информация : Advanced Video Codec
Профиль формата : High@L4.1
Параметр CABAC формата : Да
Параметр ReFrames формата : 16 кадров
Идентификатор кодека : V_MPEG4/ISO/AVC
Продолжительность : 2 ч. 31 м.
Битрейт : 1310 Кбит/сек
Ширина : 888 пикселей
Высота : 370 пикселей
Соотношение сторон : 2,40:1
Режим частоты кадров : Постоянный
Частота кадров : 23,976 (24000/1001) кадра/сек
Цветовое пространство : YUV
Субдискретизация насыщенности : 4:2:0
Битовая глубина : 8 бит
Тип развёртки : Прогрессивная
Бит/(Пиксели*Кадры) : 0.166
Размер потока : 1,39 Гбайт (95%)
Заголовок : Batman v Superman: Dawn of Justice (2016) (Rip by stalkerok)
Библиотека кодирования : x264 core 148 r2705+54 9f484c1 t_mod_Custom [8-bit@all X86_64]
Настройки программы : cabac=1 / ref=16 / deblock=1:-3:-2 / analyse=0x3:0x133 / me=umh / subme=10 / psy=1 / fade_compensate=0.00 / psy_rd=1.04:0.00 / mixed_ref=1 / me_range=32 / chroma_me=1 / trellis=2 / 8x8dct=1 / cqm=0 / deadzone=21,11 / fast_pskip=0 / chroma_qp_offset=-2 / threads=12 / lookahead_threads=2 / sliced_threads=0 / nr=0 / decimate=0 / interlaced=0 / bluray_compat=0 / constrained_intra=0 / fgo=0 / bframes=16 / b_pyramid=2 / b_adapt=2 / b_bias=0 / direct=3 / weightb=1 / open_gop=0 / weightp=2 / keyint=240 / keyint_min=23 / scenecut=40 / intra_refresh=0 / rc_lookahead=60 / rc=2pass / mbtree=0 / bitrate=1310 / ratetol=1.0 / qcomp=0.65 / qpmin=0:0:0 / qpmax=69:69:69 / qpstep=4 / cplxblur=20.0 / qblur=0.5 / vbv_maxrate=50000 / vbv_bufsize=62500 / nal_hrd=none / filler=0 / ip_ratio=1.40 / pb_ratio=1.30 / aq=3:0.90 / aq-sensitivity=10.00 / aq-factor=1.00:1.00:1.00 / aq2=0 / aq3=0
Default : Да
Forced : Нет
Аудио
Идентификатор : 2
Формат : AAC
Формат/Информация : Advanced Audio Codec
Профиль формата : HE-AAC / LC
Идентификатор кодека : A_AAC
Продолжительность : 2 ч. 31 м.
Битрейт : 64,0 Кбит/сек
Каналы : 2 канала
Расположение каналов : Front: L R
Частота : 48,0 КГц / 24,0 КГц
Частота кадров : 23,438 кадра/сек (1024 spf)
Метод сжатия : С потерями
Задержка видео : 31 мс.
Размер потока : 69,4 Мбайт (5%)
Язык : Russian
Default : Да
Forced : Нет
Текст
Идентификатор : 3
Формат : UTF-8
Идентификатор кодека : S_TEXT/UTF8
Идентификатор кодека/Информация : UTF-8 Plain Text
Продолжительность : 2 ч. 30 м.
Битрейт : 4 бит/сек
Count of elements : 100
Размер потока : 4,72 Кбайт (0%)
Заголовок : Forced
Язык : Russian
Default : Да
Forced : Нет
Меню
00:00:00.000 : en:Chapter 1
00:09:50.047 : en:Chapter 2
00:20:45.786 : en:Chapter 3
00:29:58.671 : en:Chapter 4
00:38:46.615 : en:Chapter 5
00:49:25.921 : en:Chapter 6
00:59:21.558 : en:Chapter 7
01:10:06.202 : en:Chapter 8
01:21:15.120 : en:Chapter 9
01:30:00.311 : en:Chapter 10
01:38:20.811 : en:Chapter 11
01:49:57.382 : en:Chapter 12
02:01:49.051 : en:Chapter 13
02:10:40.415 : en:Chapter 14
02:18:41.313 : en:Chapter 15
02:23:50.371 : en:Chapter 16

Скриншоты

[Profile]  [PM] 
Display posts:    
Reply to topic

Current time is: 21-Jul 22:35

All times are UTC + 2



You cannot post new topics in this forum
You cannot reply to topics in this forum
You cannot edit your posts in this forum
You cannot delete your posts in this forum
You cannot vote in polls in this forum
You cannot attach files in this forum
You cannot download files in this forum