Кловерфилд, 10 / 10 Cloverfield Lane (Дэн Трактенберг / Dan Trachtenberg) [2016, США, ужасы, фантастика, триллер, BDRip-AVC] Dub + Sub (rus, ukr)

Reply to topic
 
Author
Message

Satyr ®

Gender: Unknown

Longevity: 11 years

Posts: 15401

Reputation: 55 [+] [-]

Satyr · Post 11-Sep-2016 01:23

[Quote] 

Кловерфилд, 10
10 Cloverfield Lane
«Монстры бывают разные»

Страна: США
Жанр: ужасы, фантастика, триллер, драма, детектив
Год выпуска: 2016
Продолжительность: 01:43:34
Перевод: Профессиональный (полное дублирование) [Blu-ray CEE]
Субтитры: русские (форсированные), украинские (форсированные)
Оригинальная аудиодорожка: нет
Режиссер: Дэн Трактенберг / Dan Trachtenberg
В ролях: Джон Гудман, Мэри Элизабет Уинстэд, Джон Галлахер мл., Дуглас М. Гриффин, Сюзанн Крайер, Брэдли Купер, Сумали Монтано, Фрэнк Моттек
Описание:
Проснувшись после автомобильной аварии, девушка оказывается в подвале человека, утверждающего, что он спас ей жизнь от химической атаки, которая сделала мир за пределами бункера непригодным для жизни.


Автор рипа: stalkerok
Сэмпл
Качество видео: BDRip-AVC [10 Cloverfield Lane (2016) Blu-ray CEE 1080p AVC DD5.1 HDCLUB]
Формат видео: MKV
Видео: 941 Кбит/сек, 816x340 (2.40:1), 23,976 кадр/сек, AVC
Аудио: русский, 64,0 Кбит/сек, 48,0 КГц / 24,0 КГц, 2 канала, AAC (HE-AAC / LC)
Навигация по главам: есть

MediaInfo

Общее
Уникальный идентификатор : 239340046691359578910480233377619127691 (0xB40F375E37A50FA599029C0693FE2D8B)
Полное имя : M:\2Rips\10 Cloverfield Lane\10.Cloverfield.Lane.2016.BDRip-AVC.Dub.745Mb.stalkerok.new-team.mkv
Формат : Matroska
Версия формата : Version 4 / Version 2
Размер файла : 745 Мбайт
Продолжительность : 1 ч. 43 м.
Общий поток : 1006 Кбит/сек
Название фильма : 10 Cloverfield Lane (2016) (Rip by stalkerok)
Дата кодирования : UTC 2016-07-16 14:01:08
Программа кодирования : mkvmerge v8.6.1 ('Flying') 64bit
Библиотека кодирования : libebml v1.3.3 + libmatroska v1.4.4
Видео
Идентификатор : 1
Формат : AVC
Формат/Информация : Advanced Video Codec
Профиль формата : High@L4.1
Параметр CABAC формата : Да
Параметр ReFrames формата : 16 кадров
Идентификатор кодека : V_MPEG4/ISO/AVC
Продолжительность : 1 ч. 43 м.
Битрейт : 941 Кбит/сек
Ширина : 816 пикселей
Высота : 340 пикселей
Соотношение сторон : 2,40:1
Режим частоты кадров : Постоянный
Частота кадров : 23,976 (24000/1001) кадра/сек
Цветовое пространство : YUV
Субдискретизация насыщенности : 4:2:0
Битовая глубина : 8 бит
Тип развёртки : Прогрессивная
Бит/(Пиксели*Кадры) : 0.141
Размер потока : 696 Мбайт (93%)
Заголовок : 10 Cloverfield Lane (2016) (Rip by stalkerok)
Библиотека кодирования : x264 core 148 r2705+54 9f484c1 t_mod_Custom [8-bit@all X86_64]
Настройки программы : cabac=1 / ref=16 / deblock=1:-3:-2 / analyse=0x3:0x133 / me=umh / subme=10 / psy=1 / fade_compensate=0.00 / psy_rd=1.00:0.00 / mixed_ref=1 / me_range=32 / chroma_me=1 / trellis=2 / 8x8dct=1 / cqm=0 / deadzone=21,11 / fast_pskip=0 / chroma_qp_offset=-2 / threads=11 / lookahead_threads=2 / sliced_threads=0 / nr=0 / decimate=0 / interlaced=0 / bluray_compat=0 / constrained_intra=0 / fgo=0 / bframes=16 / b_pyramid=2 / b_adapt=2 / b_bias=0 / direct=3 / weightb=1 / open_gop=0 / weightp=2 / keyint=240 / keyint_min=23 / scenecut=40 / intra_refresh=0 / rc_lookahead=60 / rc=2pass / mbtree=0 / bitrate=941 / ratetol=1.0 / qcomp=0.65 / qpmin=0:0:0 / qpmax=69:69:69 / qpstep=4 / cplxblur=20.0 / qblur=0.5 / vbv_maxrate=50000 / vbv_bufsize=62500 / nal_hrd=none / filler=0 / ip_ratio=1.40 / pb_ratio=1.30 / aq=3:0.90 / aq-sensitivity=10.00 / aq-factor=1.00:1.00:1.00 / aq2=0 / aq3=0
Default : Да
Forced : Нет
Аудио
Идентификатор : 2
Формат : AAC
Формат/Информация : Advanced Audio Codec
Профиль формата : HE-AAC / LC
Идентификатор кодека : A_AAC
Продолжительность : 1 ч. 43 м.
Битрейт : 64,0 Кбит/сек
Каналы : 2 канала
Расположение каналов : Front: L R
Частота : 48,0 КГц / 24,0 КГц
Частота кадров : 23,438 кадра/сек (1024 spf)
Метод сжатия : С потерями
Задержка видео : 31 мс.
Размер потока : 47,4 Мбайт (6%)
Язык : Russian
Default : Да
Forced : Нет
Текст #1
Идентификатор : 3
Формат : UTF-8
Идентификатор кодека : S_TEXT/UTF8
Идентификатор кодека/Информация : UTF-8 Plain Text
Продолжительность : 1 ч. 32 м.
Битрейт : 0 бит/сек
Count of elements : 8
Размер потока : 197 байт (0%)
Заголовок : Forced
Язык : Russian
Default : Да
Forced : Нет
Текст #2
Идентификатор : 4
Формат : UTF-8
Идентификатор кодека : S_TEXT/UTF8
Идентификатор кодека/Информация : UTF-8 Plain Text
Продолжительность : 1 ч. 32 м.
Битрейт : 0 бит/сек
Count of elements : 11
Размер потока : 345 байт (0%)
Заголовок : Forced
Язык : Ukrainian
Default : Нет
Forced : Нет
Меню
00:00:00.000 : en:Chapter 1
00:05:55.605 : en:Chapter 2
00:14:52.516 : en:Chapter 3
00:19:18.157 : en:Chapter 4
00:24:11.992 : en:Chapter 5
00:32:21.940 : en:Chapter 6
00:42:59.243 : en:Chapter 7
00:47:47.739 : en:Chapter 8
00:53:37.088 : en:Chapter 9
00:57:00.625 : en:Chapter 10
01:03:10.745 : en:Chapter 11
01:11:20.192 : en:Chapter 12
01:15:49.419 : en:Chapter 13
01:24:21.264 : en:Chapter 14
01:28:19.085 : en:Chapter 15
01:37:31.512 : en:Chapter 16

Скриншоты

[Profile]  [PM] 
Display posts:    
Reply to topic

Current time is: 24-Sep 04:47

All times are UTC + 2



You cannot post new topics in this forum
You cannot reply to topics in this forum
You cannot edit your posts in this forum
You cannot delete your posts in this forum
You cannot vote in polls in this forum
You cannot attach files in this forum
You cannot download files in this forum