Любовь в раю / Love in paradise (Шон МакНамара / Sean McNamara) [2016, США, Канада, комедия, мелодрама, HDTVRip] VO (Lord32x)

Reply to topic
 
Author
Message

Satyr ®

Gender: Unknown

Longevity: 11 years

Posts: 15401

Reputation: 55 [+] [-]

Satyr · Post 11-Sep-2016 01:23

[Quote] 

Любовь в раю / Love in paradise
Страна: США, Канада
Жанр: комедия, мелодрама
Год выпуска: 2016
Продолжительность: 01:23:32
Перевод: Одноголосый закадровый (Lord32x)
Cубтитры: нет
Режиссер: Шон МакНамара / Sean McNamara
В ролях: Люк Перри, Эммануэль Вожье, Чад Виллетт, Джошуа Дж. Баллард, Том Батлер
Описание: Эвери Форд - известный актер, сделавший имя и карьеру, играя крутого ковбоя в популярном сериале. Но сейчас дни его славы остались в прошлом. Сьемки сериала приостановлены, а он зарабатывает на жизнь, снимаясь в рекламе. Неожиданно ему поступает заманчивое предложение "поработать лицом" - изображать ковбоя в рамках рекламной кампании конно-спортивного комплекса. Правда для этого ему придется отправиться в глухую провинцию, а он таким переменам в жизни не особо рад...
Доп. информация: Полнометражный фильм канала Hallmark
Сто процентов рафинированной романтики
Красивое кино о красивой жизни
Еще один фильм из коллекции Hallmark - МОЙ ЛУЧШИЙ РОМАН (2015)
Перевод: М.Васильев
Озвучка: Lord32x
Сэмпл
IMDB
КИНОПОИСК
Качество видео: HDTVRip
Формат видео: AVI
Видео: 2304 Kbps, 720x400 (16:9), 29 970 fps, XviD
Аудио: 192 Kbps, 48.0 KHz, MPEG Audio MP 3

MediaInfo

General
Complete name : C:\Users\master\Documents\Downloads\Love.In.Paradise.2016.HDTVRip.avi
Format : AVI
Format/Info : Audio Video Interleave
File size : 1.46 GiB
Duration : 1h 23mn
Overall bit rate : 2 508 Kbps
Writing application : VirtualDubMod 1.5.10.3 (build 2550/release)
Writing library : VirtualDubMod build 2550/release
Video
ID : 0
Format : MPEG-4 Visual
Format profile : Advanced Simple@L5
Format settings, BVOP : 1
Format settings, QPel : No
Format settings, GMC : No warppoints
Format settings, Matrix : Default (H.263)
Codec ID : XVID
Codec ID/Hint : XviD
Duration : 1h 23mn
Bit rate : 2 304 Kbps
Width : 720 pixels
Height : 400 pixels
Display aspect ratio : 16:9
Frame rate : 29.970 fps
Color space : YUV
Chroma subsampling : 4:2:0
Bit depth : 8 bits
Scan type : Progressive
Compression mode : Lossy
Bits/(Pixel*Frame) : 0.267
Stream size : 1.34 GiB (92%)
Writing library : XviD 1.2.1 (UTC 2008-12-04)
Audio
ID : 1
Format : MPEG Audio
Format version : Version 1
Format profile : Layer 3
Mode : Joint stereo
Mode extension : MS Stereo
Codec ID : 55
Codec ID/Hint : MP3
Duration : 1h 23mn
Bit rate mode : Constant
Bit rate : 192 Kbps
Channel(s) : 2 channels
Sampling rate : 48.0 KHz
Compression mode : Lossy
Stream size : 115 MiB (8%)
Alignment : Aligned on interleaves
Interleave, duration : 33 ms (1.00 video frame)
Interleave, preload duration : 504 ms

Скриншот c названием фильма

Скриншоты





[Profile]  [PM] 
Display posts:    
Reply to topic

Current time is: 01-Oct 05:24

All times are UTC + 2



You cannot post new topics in this forum
You cannot reply to topics in this forum
You cannot edit your posts in this forum
You cannot delete your posts in this forum
You cannot vote in polls in this forum
You cannot attach files in this forum
You cannot download files in this forum