Роковое влечение / Éperdument (Пьер Годо / Pierre Godeau) [2016, Франция, Бельгия, драма, WEB-DLRip] MVO (iTunes)

Reply to topic
 
Author
Message

Satyr ®

Gender: Unknown

Longevity: 11 years

Posts: 15401

Reputation: 55 [+] [-]

Satyr · Post 11-Sep-2016 01:23

[Quote] 

Роковое влечение / Éperdument
Страна: Франция, Бельгия
Жанр: драма
Год выпуска: 2016
Продолжительность: 01:50:15
Перевод: Профессиональный (многоголосый закадровый) - (iTunes)
Cубтитры: нет
Оригинальная аудиодорожка: нет
Режиссер: Пьер Годо / Pierre Godeau
В ролях: Адель Экзаркопулос, Гийом Гальенн, Стефани Клео, Aliénor Poisson, Cyrielle Martinez, Selma Mansouri, Сабила Муссадек, Жюли Мулье, Мари Ривьер, Марилин Ивен
Описание: Его жизнь была беззаботной и счастливой — прекрасная работа, любящая жена, дочь. Но он готов потерять все ради нее. Кто она? Невинная девушка или сексуальная искусительница, легко манипулирующая мужчинами?
Сэмпл: http://multi-up.com/1110045
Качество видео: WEB-DLRip
Исходник: [Rokovoe.vle4enie.2O16.P.WEBDL.720p kinozal]
Формат видео: AVI
Видео: 720x304 (2.37:1), 24.000 fps, XviD build 65 ~1693 kbps avg, 0.32 bit/pixel
Аудио: 48 kHz, AC3 Dolby Digital, 2/0 (L,R) ch, ~192 kbps

Rip by Ториял для

MediaInfo

General
Complete name : D:\Фильмы\Éperdument _2016_Toriyal_Rutracker.avi
Format : AVI
Format/Info : Audio Video Interleave
File size : 1.46 GiB
Duration : 1h 50mn
Overall bit rate : 1 895 Kbps
Writing application : VirtualDubMod 1.5.10.3 | www.virtualdub-fr.org || (build 2550/release)
Writing library : VirtualDubMod build 2550/release
Video
ID : 0
Format : MPEG-4 Visual
Format profile : Advanced Simple@L5
Format settings, BVOP : 1
Format settings, QPel : No
Format settings, GMC : No warppoints
Format settings, Matrix : Custom
Codec ID : XVID
Codec ID/Hint : XviD
Duration : 1h 50mn
Bit rate : 1 693 Kbps
Width : 720 pixels
Height : 304 pixels
Display aspect ratio : 2.35:1
Frame rate : 24.000 fps
Color space : YUV
Chroma subsampling : 4:2:0
Bit depth : 8 bits
Scan type : Progressive
Compression mode : Lossy
Bits/(Pixel*Frame) : 0.322
Stream size : 1.30 GiB (89%)
Writing library : XviD 65
Audio
ID : 1
Format : AC-3
Format/Info : Audio Coding 3
Mode extension : CM (complete main)
Format settings, Endianness : Big
Codec ID : 2000
Duration : 1h 50mn
Bit rate mode : Constant
Bit rate : 192 Kbps
Channel(s) : 2 channels
Channel positions : Front: L R
Sampling rate : 48.0 KHz
Frame rate : 31.250 fps (1536 spf)
Compression mode : Lossy
Stream size : 151 MiB (10%)
Alignment : Split accross interleaves
Interleave, duration : 42 ms (1.00 video frame)
Interleave, preload duratio : 500 ms

Скриншоты

[Profile]  [PM] 
Display posts:    
Reply to topic

Current time is: 19-Sep 11:35

All times are UTC + 2



You cannot post new topics in this forum
You cannot reply to topics in this forum
You cannot edit your posts in this forum
You cannot delete your posts in this forum
You cannot vote in polls in this forum
You cannot attach files in this forum
You cannot download files in this forum