Тёмный сигнал / Dark Signal (Эд Эверс-Свинделл / Ed Evers-Swindell) [2016, Великобритания, Ужасы, триллер, детектив, WEB-DLRip] VO (ХихиДок)

Reply to topic
 
Author
Message

Satyr ®

Gender: Unknown

Longevity: 11 years

Posts: 15401

Reputation: 55 [+] [-]

Satyr · Post 11-Sep-2016 01:23

[Quote] 

Тёмный сигнал / Dark Signal
Страна: Великобритания
Жанр: Ужасы, триллер, детектив
Год выпуска: 2016
Продолжительность: 01:38:50
Перевод: Одноголосый закадровый ХихиДок
Cубтитры: нет
Режиссер: Эд Эверс-Свинделл / Ed Evers-Swindell
В ролях: Сиван Моррис, Гарет Дэвид-Ллойд, Joanna Ignaczewska, Дункан Поу, Чинция Монреале, Элеанор Гекс, Джеймс Космо, Сионед Джонс, Amelie Leroy, Kai Coleman
Описание: Бывает в жизни так, что стечение нескольких обстоятельств приводит к одному знаменателю. Катастрофическая нехватка денег заставляет людей идти на необдуманные и ужасные поступки, о которых в последствии можно очень сильно пожалеть. Финансовые неурядицы случились в семье Кейт. Она сама воспитывает ребёнка, а денег нет даже не то, чтоб его накормить. От полного отчаяния девушка соглашается на предложение своего очередного парня, совершить кражу со взломом. Однако чуть ранее в этот дом уже проник маньяк, он изувечил и жестоко убил хозяйку этого дома. Наши горе грабители стали невольными свидетелями этого кошмара. В тоже время ночь на увядающей радиостанции, у которой остался всего один эфирный день, после поглотит медиа-магнат, проходит последняя программа. Работник радио Бен приглашает в студию женщину-медиума. Та в прямом эфире входит в контакт с призраком убитой девушки. Теперь им необходимо разобраться, что этот дух пришёл им сообщить и как они смогут ему помочь, чтобы он наконец обрёл вечный покой.....
Сэмпл: http://multi-up.com/1109662
Качество видео: WEB-DLRip
Формат видео: AVI
Видео: XviD 73, 720x304, (2,35:1), 24,000 fps, 1626 Кбит/сек, 8 бит
Аудио: Русский (АС3, 2 ch (Front: L R), 48,0 KHz, 192 Kbps)

MediaInfo

Общее
Полное имя : F:\Видеофильмы\В и д е о\Тёмный сигнал (ужасы, триллер 2016).avi
Формат : AVI
Формат/Информация : Audio Video Interleave
Размер файла : 1,40 Гбайт
Продолжительность : 1 ч. 38 м.
Общий поток : 2024 Кбит/сек
Программа кодирования : VirtualDubMod 1.5.10.3 | www.virtualdub-fr.org || (build 2550/release)
Библиотека кодирования : VirtualDubMod build 2550/release
Видео
Идентификатор : 0
Формат : MPEG-4 Visual
Профиль формата : Advanced Simple@L5
Параметр BVOP формата : 2
Параметр QPel формата : Нет
Параметр GMC формата : Без точки перехода
Параметр матрицы формата : Default (H.263)
Идентификатор кодека : XVID
Идентификатор кодека/Подсказка : XviD
Продолжительность : 1 ч. 38 м.
Битрейт : 1626 Кбит/сек
Ширина : 720 пикселей
Высота : 304 пикселя
Соотношение сторон : 2,35:1
Частота кадров : 24,000 кадра/сек
Цветовое пространство : YUV
Субдискретизация насыщенности : 4:2:0
Битовая глубина : 8 бит
Тип развёртки : Прогрессивная
Метод сжатия : С потерями
Бит/(Пиксели*Кадры) : 0.309
Размер потока : 1,12 Гбайт (80%)
Библиотека кодирования : XviD 73
Аудио #1
Идентификатор : 1
Формат : AC-3
Формат/Информация : Audio Coding 3
Расширение режима : CM (complete main)
Параметр Endianness формата : Big
Идентификатор кодека : 2000
Продолжительность : 1 ч. 38 м.
Вид битрейта : Постоянный
Битрейт : 192 Кбит/сек
Каналы : 2 канала
Расположение каналов : Front: L R
Частота : 48,0 КГц
Частота кадров : 31,250 кадров/сек (1536 spf)
Метод сжатия : С потерями
Размер потока : 136 Мбайт (9%)
Выравнивание : Разделение по промежуткам
Продолжительность промежутка : 42 мс. (1,00 видеокадр)
Время предзагрузки промежутка : 500 мс.
Аудио #2
Идентификатор : 2
Формат : AC-3
Формат/Информация : Audio Coding 3
Расширение режима : CM (complete main)
Параметр Endianness формата : Big
Идентификатор кодека : 2000
Продолжительность : 1 ч. 38 м.
Вид битрейта : Постоянный
Битрейт : 192 Кбит/сек
Каналы : 2 канала
Расположение каналов : Front: L R
Частота : 48,0 КГц
Частота кадров : 31,250 кадров/сек (1536 spf)
Метод сжатия : С потерями
Размер потока : 136 Мбайт (9%)
Выравнивание : Разделение по промежуткам
Продолжительность промежутка : 42 мс. (1,00 видеокадр)
Время предзагрузки промежутка : 500 мс.

Скриншот c названием фильма

Скриншоты

[Profile]  [PM] 
Display posts:    
Reply to topic

Current time is: 24-Jan 08:47

All times are UTC + 2



You cannot post new topics in this forum
You cannot reply to topics in this forum
You cannot edit your posts in this forum
You cannot delete your posts in this forum
You cannot vote in polls in this forum
You cannot attach files in this forum
You cannot download files in this forum