Призыв / The Call Up (Чарли Бакер / Charles Barker) [2016, Велкобритания, Боевик, фантастика, WEB-DLRip] VO (ХихиДок)

Reply to topic
 
Author
Message

Satyr ®

Gender: Unknown

Longevity: 15 years

Posts: 21964

Reputation: 56 [+] [-]

Satyr · Post 11-Sep-2016 01:23

[Quote] 

Призыв / The Call Up
Страна: Великобритания
Жанр: Боевик, фантастика
Год выпуска: 2016
Продолжительность: 01:30:29
Перевод: Одноголосый закадровый ХихиДок
Cубтитры: нет
Режиссер: Чарли Бакер / Charles Barker
В ролях: Кристофер Оби, Паркер Сойерс, Морфидд Кларк, Макс Дикон, Дино Фаззани, Том Бенедикт Найт, Грег Колпакчи, Адриана Рэндолл, Али Кук, Мак Пиетовски
Описание: Лучшие компьютерные игроки страны получают загадочное приглашение от высокотехнологичной корпорации принять участие в закрытом тестировании последней разработки в области развлечений - стрелялки с полным погружением Призыв, игровой процесс которой разворачивается в виртуальной реальности. Далёким от реальной жизни юношам и девушкам с огромным игровым опытом выдают фантастическое обмундирование и начинается игра, главный приз которой - 100 000$ - получит участник, набравший максимальное количество баллов. Будоражащее сознание знакомство с удивительной игрой приобретает неожиданный оборот, когда выясняется, что противниками безобидных в жизни ребят выступают подготовленные бойцы, а получаемый урон - полностью реален. Гибель в игре означает смерть и за её пределами. Правила меняются, теперь основной целью игроков является отнюдь не победа и главный приз, а элементарное выживание. Каждый шаг может стать последним, а ради спасения придётся научиться действовать в реальных условиях и убивать подручными средствами.
Сэмпл: http://multi-up.com/1109396
Качество видео: WEB-DLRip
Формат видео: AVI
Видео: XviD 73, 624x336, (1,85:1), 23,976 fps, 1013 Кбит/с, 8 бит
Аудио: Русский (МР3, 2 ch, 48,0 KHz, 128 Kbps)

MediaInfo

Общее
Полное имя : F:\Видеофильмы\В и д е о\Призыв (боевик, фантастика 2016г).avi
Формат : AVI
Формат/Информация : Audio Video Interleave
Размер файла : 744 Мбайт
Продолжительность : 1 ч. 30 м.
Общий поток : 1150 Кбит/сек
Программа кодирования : VirtualDubMod 1.5.10.3 | www.virtualdub-fr.org || (build 2550/release)
Библиотека кодирования : VirtualDubMod build 2550/release
Видео
Идентификатор : 0
Формат : MPEG-4 Visual
Профиль формата : Advanced Simple@L5
Параметр BVOP формата : 1
Параметр QPel формата : Нет
Параметр GMC формата : Без точки перехода
Параметр матрицы формата : Выборочная
Идентификатор кодека : XVID
Идентификатор кодека/Подсказка : XviD
Продолжительность : 1 ч. 30 м.
Битрейт : 1013 Кбит/сек
Ширина : 624 пикселя
Высота : 336 пикселей
Соотношение сторон : 1,85:1
Частота кадров : 23,976 (23976/1000) кадра/сек
Цветовое пространство : YUV
Субдискретизация насыщенности : 4:2:0
Битовая глубина : 8 бит
Тип развёртки : Прогрессивная
Метод сжатия : С потерями
Бит/(Пиксели*Кадры) : 0.201
Размер потока : 655 Мбайт (88%)
Библиотека кодирования : XviD 73
Аудио
Идентификатор : 1
Формат : MPEG Audio
Версия формата : Version 1
Профиль формата : Layer 3
Идентификатор кодека : 55
Идентификатор кодека/Подсказка : MP3
Продолжительность : 1 ч. 30 м.
Вид битрейта : Постоянный
Битрейт : 128 Кбит/сек
Каналы : 2 канала
Частота : 48,0 КГц
Метод сжатия : С потерями
Размер потока : 82,8 Мбайт (11%)
Выравнивание : Соединение по промежуткам
Продолжительность промежутка : 42 мс. (1,00 видеокадр)
Время предзагрузки промежутка : 504 мс.
Библиотека кодирования : LAME3.99r
Настройки программы : -m s -V 4 -q 2 -lowpass 17 -b 128

Скриншот c названием фильма

Скриншоты

[Profile]  [PM] 
Display posts:    
Reply to topic

Current time is: 24-Jun 18:07

All times are UTC + 2



You cannot post new topics in this forum
You cannot reply to topics in this forum
You cannot edit your posts in this forum
You cannot delete your posts in this forum
You cannot vote in polls in this forum
You cannot attach files in this forum
You cannot download files in this forum