Чудеса с небес / Miracles from Heaven (Патрисия Ригген / Patricia Riggen) [2016, США, драма, BDRip-AVC] MVO + Original + Sub (rus, eng)

Reply to topic
 
Author
Message

Satyr ®

Gender: Unknown

Longevity: 11 years

Posts: 15401

Reputation: 55 [+] [-]

Satyr · Post 11-Sep-2016 01:23

[Quote] 

Чудеса с небес / Miracles from Heaven«How do we explain the impossible?»- Страна: США
Жанр: драма
Год выпуска: 2016
Продолжительность: 01:49:01
Перевод: Профессиональный (многоголосый, закадровый) (iTunes)
Оригинальная аудиодорожка: английский
Субтитры: русские (полные) английские (полные)
Навигация по главам: есть
Режиссер: Патрисия Ригген / Patricia Riggen
В ролях: Дженнифер Гарнер (Christy Beam), Кайли Роджерс (Anna Beam), Мартин Хендерсон (Kevin Beam), Брайтон Шарбино (Abbie Beam), Кортни Фанслер (Adelynn Beam), Куин Латифа (Angela), Эухенио Дербес (Dr. Nurko), Келли Коллинз (Emmy), Джон Кэрролл Линч (Pastor Scott), Брэндон Спинк (Billy Snyder), Рода Гриффис (Church Lady), Erica McGee (Church Lady)
Описание: Удивительная история, в которую невозможно поверить, не увидев собственными глазами. Когда кажется все потеряно, и впереди только боль и отчаяние, небеса дарят надежду тем, кто верит.- -Качество: BDRip-AVC (исходник - BDRemux|MIRACLES_FROM_HEAVEN_REMUX_HDCLUB)
Формат видео: MKV
Видео: x264, 1152x622 (1.85:1), 23,976 fps, ~2941 kbps, 0.171 bit/pixel
Аудио 1: 48 kHz, AC3 Dolby Digital, 3/2 (L,C,R,l,r) + LFE ch, ~384 kbps [русский]
Аудио 2: 48 kHz, AC3 Dolby Digital, 3/2 (L,C,R,l,r) + LFE ch, ~384 kbps [английский]
Формат субтитров: softsub (SRT)-

MediaInfo | x264 log

Format : Matroska
Format version : Version 4 / Version 2
File size : 2.88 GiB
Duration : 1h 49mn
Overall bit rate : 3 784 Kbps
Movie name : Чудеса с небес / Miracles from Heaven (2016) :: AFM::
Encoded date : UTC 2016-07-08 23:36:31
Writing application : mkvmerge v8.3.0 ('Over the Horizon') 32bit
Writing library : libebml v1.3.1 + libmatroska v1.4.2
Video
ID : 1
Format : AVC
Format/Info : Advanced Video Codec
Format profile : High@L4.1
Format settings, CABAC : Yes
Format settings, ReFrames : 11 frames
Codec ID : V_MPEG4/ISO/AVC
Duration : 1h 49mn
Bit rate : 2 941 Kbps
Width : 1 152 pixels
Height : 622 pixels
Display aspect ratio : 1.85:1
Frame rate mode : Constant
Frame rate : 23.976 fps
Color space : YUV
Chroma subsampling : 4:2:0
Bit depth : 8 bits
Scan type : Progressive
Bits/(Pixel*Frame) : 0.171
Stream size : 2.24 GiB (78%)
Title : BDRip by AFM [torrentsland.com.ua]
Writing library : x264 core 148 r2705+54 9f484c1 t_mod_Custom [8-bit@all X86_64]
Encoding settings : cabac=1 / ref=11 / deblock=1:-2:-2 / analyse=0x3:0x113 / me=umh / subme=10 / psy=1 / fade_compensate=0.00 / psy_rd=0.90:0.00 / mixed_ref=1 / me_range=32 / chroma_me=1 / trellis=2 / 8x8dct=1 / cqm=0 / deadzone=21,11 / fast_pskip=0 / chroma_qp_offset=-2 / threads=6 / lookahead_threads=1 / sliced_threads=0 / nr=0 / decimate=1 / interlaced=0 / bluray_compat=0 / constrained_intra=0 / fgo=0 / bframes=13 / b_pyramid=2 / b_adapt=2 / b_bias=0 / direct=1 / weightb=1 / open_gop=0 / weightp=2 / keyint=250 / keyint_min=23 / scenecut=40 / intra_refresh=0 / rc_lookahead=40 / rc=crf / mbtree=0 / crf=17.5000 / qcomp=0.65 / qpmin=0:0:0 / qpmax=69:69:69 / qpstep=4 / vbv_maxrate=50000 / vbv_bufsize=62500 / crf_max=0.0 / nal_hrd=none / filler=0 / ip_ratio=1.30 / pb_ratio=1.25 / aq=1:0.80 / aq-sensitivity=10.00 / aq-factor=1.00:1.00:1.00 / aq2=0 / aq3=0
Language : English
Default : Yes
Forced : No
Audio #1
ID : 2
Format : AC-3
Format/Info : Audio Coding 3
Mode extension : CM (complete main)
Format settings, Endianness : Big
Codec ID : A_AC3
Duration : 1h 49mn
Bit rate mode : Constant
Bit rate : 384 Kbps
Channel(s) : 6 channels
Channel positions : Front: L C R, Side: L R, LFE
Sampling rate : 48.0 KHz
Compression mode : Lossy
Stream size : 299 MiB (10%)
Title : MVO, AC3 5.1 ~384 kbps
Language : Russian
Default : Yes
Forced : No
Audio #2
ID : 3
Format : AC-3
Format/Info : Audio Coding 3
Mode extension : CM (complete main)
Format settings, Endianness : Big
Codec ID : A_AC3
Duration : 1h 49mn
Bit rate mode : Constant
Bit rate : 384 Kbps
Channel(s) : 6 channels
Channel positions : Front: L C R, Side: L R, LFE
Sampling rate : 48.0 KHz
Compression mode : Lossy
Stream size : 299 MiB (10%)
Title : Original, AC3 5.1 ~384 kbps
Language : English
Default : No
Forced : No
Text #1
ID : 4
Format : UTF-8
Codec ID : S_TEXT/UTF8
Codec ID/Info : UTF-8 Plain Text
Language : Russian
Default : No
Forced : No
Text #2
ID : 5
Format : UTF-8
Codec ID : S_TEXT/UTF8
Codec ID/Info : UTF-8 Plain Text
Language : English
Default : No
Forced : No
Menu
00:00:00.000 : en:Chapter 1
00:06:10.161 : en:Chapter 2
00:12:48.100 : en:Chapter 3
00:19:17.028 : en:Chapter 4
00:26:49.521 : en:Chapter 5
00:33:38.722 : en:Chapter 6
00:39:39.460 : en:Chapter 7
00:45:47.702 : en:Chapter 8
00:53:37.130 : en:Chapter 9
01:00:58.487 : en:Chapter 10
01:08:36.028 : en:Chapter 11
01:16:13.277 : en:Chapter 12
01:23:13.569 : en:Chapter 13
01:29:06.506 : en:Chapter 14
01:35:59.587 : en:Chapter 15
01:43:04.176 : en:Chapter 16

x264

x264 [info]: frame I:1283 Avg QP:17.02 size: 97278
x264 [info]: frame P:33921 Avg QP:18.06 size: 34591
x264 [info]: frame B:121636 Avg QP:20.51 size: 9588
x264 [info]: consecutive B-frames: 1.7% 2.1% 4.9% 35.3% 14.8% 27.6% 4.8% 4.2% 1.3% 1.4% 0.6% 0.6% 0.2% 0.4%
x264 [info]: mb I I16..4: 6.4% 72.8% 20.8%
x264 [info]: mb P I16..4: 1.3% 10.2% 1.5% P16..4: 37.1% 28.0% 15.4% 0.0% 0.0% skip: 6.5%
x264 [info]: mb B I16..4: 0.1% 0.7% 0.1% B16..8: 37.7% 11.2% 3.2% direct: 5.0% skip:42.0% L0:40.4% L1:43.7% BI:15.9%
x264 [info]: 8x8 transform intra:76.8% inter:63.4%
x264 [info]: coded y,uvDC,uvAC intra: 82.7% 89.5% 75.5% inter: 20.4% 21.5% 6.5%
x264 [info]: i16 v,h,dc,p: 42% 14% 4% 40%
x264 [info]: i8 v,h,dc,ddl,ddr,vr,hd,vl,hu: 12% 10% 8% 9% 13% 13% 12% 12% 12%
x264 [info]: i4 v,h,dc,ddl,ddr,vr,hd,vl,hu: 12% 9% 4% 9% 15% 14% 13% 11% 12%
x264 [info]: i8c dc,h,v,p: 43% 20% 18% 19%
x264 [info]: Weighted P-Frames: Y:4.2% UV:2.8%
x264 [info]: ref P L0: 50.4% 13.2% 15.4% 5.5% 4.5% 3.1% 2.7% 1.5% 1.4% 1.1% 1.2% 0.1% 0.0%
x264 [info]: ref B L0: 78.1% 9.8% 4.6% 2.3% 1.6% 1.3% 1.0% 0.7% 0.4% 0.2%
x264 [info]: ref B L1: 94.9% 5.1%
x264 [info]: kb/s:3013.88

Скриншоты

с названием

[Profile]  [PM] 
Display posts:    
Reply to topic

Current time is: 29-Sep 19:15

All times are UTC + 2



You cannot post new topics in this forum
You cannot reply to topics in this forum
You cannot edit your posts in this forum
You cannot delete your posts in this forum
You cannot vote in polls in this forum
You cannot attach files in this forum
You cannot download files in this forum