Сезон охоты / Fair Chase / Hunting Season (Эдуард Кастрило / Eduard Castrillo) [2016, США, Боевик, триллер, WEB-DLRip] MVO

Reply to topic
 
Author
Message

Satyr ®

Gender: Unknown

Longevity: 15 years

Posts: 22031

Reputation: 56 [+] [-]

Satyr · Post 11-Sep-2016 01:23

[Quote] 

Сезон охоты / Fair Chase / Hunting Season
Страна: США
Жанр: Боевик, триллер
Год выпуска: 2016
Продолжительность: 01:24:42
Перевод: Любительский (многоголосый закадровый)
Cубтитры: нет
Режиссер: Эдуард Кастрило / Eduard Castrillo
В ролях: Том Сайзмор, Эрик Робертс, Клифтон Пауэлл, Мигель А. Нуньес мл., Маркус Д. Спенсер, Джеки Даллас, Майкл Пласенсия, Майкл Грейсон, Мэтт Фуэнтес, Джои Руджеро
Описание: На территории небольшого городка стало все больше слышно о преступниках, которые покушаются на жизни спортсменов. Эти ребята уже успешно провернули несколько дел, только полиция все еще не может выйти на их след. Именно по этой причине детективам пришлось отдать это непростое дело в руки представителей службы ФБР. Агенты быстро смогли установить личности предполагаемых бандитов, даже вышли на их след. Совершенно неожиданно для себя, оперативники смогли переквалифицироваться из охотников в добычу. Им предстоит спасаться от вооруженных преступников. Удастся ли на этот раз профессиональным агентам федеральной службы не только успешно раскрыть дело, но и заставить преступников получить свое наказание по заслугам?
Сэмпл: https://yadi.sk/i/fMDHZDzVt7DEK
Качество видео: WEB-DLRip
Формат видео: AVI
Видео: XviD, 720x400, (16:9), 23,976 fps, 1950 Кбит/сек, 8 бит
Аудио: Русский (AC-3, 6 ch (Front: L C R, Side: L R, LFE), 48,0 KHz, 484 Kbps)

MediaInfo

Общее
Полное имя : F:\Видеофильмы\В и д е о\Сезон охоты (боевик триллер 2016г).avi
Формат : AVI
Формат/Информация : Audio Video Interleave
Размер файла : 1,37 Гбайт
Продолжительность : 1 ч. 23 м.
Общий поток : 2343 Кбит/сек
Видео
Идентификатор : 0
Формат : MPEG-4 Visual
Профиль формата : Advanced Simple@L5
Параметр BVOP формата : 2
Параметр QPel формата : Нет
Параметр GMC формата : Без точки перехода
Параметр матрицы формата : Выборочная
Идентификатор кодека : XVID
Идентификатор кодека/Подсказка : XviD
Продолжительность : 1 ч. 23 м.
Битрейт : 1950 Кбит/сек
Ширина : 720 пикселей
Высота : 400 пикселей
Соотношение сторон : 16:9
Частота кадров : 23,976 (23976/1000) кадра/сек
Цветовое пространство : YUV
Субдискретизация насыщенности : 4:2:0
Битовая глубина : 8 бит
Тип развёртки : Прогрессивная
Метод сжатия : С потерями
Бит/(Пиксели*Кадры) : 0.282
Размер потока : 1,14 Гбайт (83%)
Библиотека кодирования : XviD 1.2.1 (UTC 2008-12-04)
Аудио
Идентификатор : 1
Формат : AC-3
Формат/Информация : Audio Coding 3
Расширение режима : CM (complete main)
Параметр Endianness формата : Big
Идентификатор кодека : 2000
Продолжительность : 1 ч. 23 м.
Вид битрейта : Постоянный
Битрейт : 384 Кбит/сек
Каналы : 6 каналов
Расположение каналов : Front: L C R, Side: L R, LFE
Частота : 48,0 КГц
Частота кадров : 31,250 кадров/сек (1536 spf)
Метод сжатия : С потерями
Размер потока : 230 Мбайт (16%)
Выравнивание : Разделение по промежуткам
Продолжительность промежутка : 42 мс. (1,00 видеокадр)
Время предзагрузки промежутка : 500 мс.

Скриншот c названием фильма

Скриншоты

[Profile]  [PM] 
Display posts:    
Reply to topic

Current time is: 19-Jul 05:35

All times are UTC + 2



You cannot post new topics in this forum
You cannot reply to topics in this forum
You cannot edit your posts in this forum
You cannot delete your posts in this forum
You cannot vote in polls in this forum
You cannot attach files in this forum
You cannot download files in this forum