Восставший / Воскресение Христа / Risen (Кевин Рейнольдс / Kevin Reynolds) [2016, США, боевик, драма, детектив, приключения, BDRip-AVC] MVO (iTunes) + Sub Rus, Eng + Original Eng

Reply to topic
 
Author
Message

Satyr ®

Gender: Unknown

Longevity: 11 years

Posts: 15401

Reputation: 55 [+] [-]

Satyr · Post 11-Sep-2016 01:23

[Quote] 

Восставший / Воскресение Христа / Risen
Страна: США
Жанр: боевик, драма, детектив, приключения
Год выпуска: 2016
Продолжительность: 01:47:38
Перевод: Профессиональный (многоголосый закадровый) iTunes
Cубтитры: Русские (Полные), Английские (Full, SDH)
Оригинальная аудиодорожка: английский--Режиссер: Кевин Рейнольдс / Kevin Reynolds--В ролях: Джозеф Файнс, Том Фелтон, Питер Фёрт, Клифф Кёртис, Мария Ботто, Луис Кальехо, Антонио Хиль-Мартинес, Ричард Этуилл, Стюарт Скудамор, Энди Гэтергуд, Стефен Хэйгэн, Миш Бойко...--Описание: 33 год н. э. Римскому трибуну в Иудее дано задание найти пропавшее тело распятого накануне еврея, который, судя по слухам, воскрес.--Доп. информация: | IMDB | КиноПоиск | Сэмпл | --Качество видео: BDRip-AVC Восставший / Risen (2016) 1080p BD-Remux HDclub
Формат видео: MKV
Видео: AVC, 1152x480 (2.40:1), 1966 kbps, 23.976 fps, 0.148 bit/pixel
Аудио 1: AC3 Dolby Digital, 3/2 (L,C,R,l,r) + LFE ch, 48 kHz, 384 kbps | MVO. iTunes |
Аудио 2: AC3 Dolby Digital, 2/0 (L,R) ch, 48 kHz, 192 kbps | Дубляж. iTunes |
Аудио 3: AC3 Dolby Digital, 3/2 (L,C,R,l,r) + LFE ch, 48 kHz, 448 kbps | Original. English |
Формат субтитров: softsub (SRT)

Скриншоты

Запасные скриншоты

MediaInfo

x264

raw [info]: 1152x480p 1:1 @ 24000/1001 fps (cfr)
x264 [info]: using SAR=1/1
x264 [info]: using cpu capabilities: MMX2 SSE2Fast SSSE3 SSE4.2 AVX
x264 [info]: profile High, level 4.1
x264 [info]: frame I:1193 Avg QP:16.44 size: 74207
x264 [info]: frame P:31523 Avg QP:18.20 size: 23713
x264 [info]: frame B:122127 Avg QP:20.66 size: 6149
x264 [info]: consecutive B-frames: 1.5% 1.9% 5.3% 24.6% 17.3% 28.8% 6.6% 6.1% 1.4% 4.6% 0.5% 1.0% 0.2% 0.1% 0.0%
x264 [info]: mb I I16..4: 5.9% 78.1% 16.0%
x264 [info]: mb P I16..4: 0.6% 8.9% 1.5% P16..4: 38.9% 22.0% 17.5% 0.8% 0.2% skip: 9.7%
x264 [info]: mb B I16..4: 0.0% 0.5% 0.2% B16..8: 38.6% 9.1% 2.7% direct: 3.8% skip:45.2% L0:42.3% L1:45.8% BI:11.9%
x264 [info]: 8x8 transform intra:79.2% inter:62.5%
x264 [info]: coded y,uvDC,uvAC intra: 89.0% 81.8% 58.6% inter: 18.7% 13.5% 2.6%
x264 [info]: i16 v,h,dc,p: 19% 14% 15% 52%
x264 [info]: i8 v,h,dc,ddl,ddr,vr,hd,vl,hu: 10% 9% 6% 9% 14% 13% 13% 12% 13%
x264 [info]: i4 v,h,dc,ddl,ddr,vr,hd,vl,hu: 9% 7% 4% 10% 16% 15% 14% 12% 13%
x264 [info]: i8c dc,h,v,p: 43% 24% 18% 15%
x264 [info]: Weighted P-Frames: Y:7.2% UV:2.8%
x264 [info]: ref P L0: 50.2% 12.0% 15.1% 6.0% 4.7% 3.3% 2.9% 1.6% 1.5% 1.2% 1.3% 0.1% 0.0%
x264 [info]: ref B L0: 77.0% 10.0% 5.0% 2.5% 1.7% 1.4% 1.1% 0.7% 0.4% 0.2%
x264 [info]: ref B L1: 94.3% 5.7%
x264 [info]: kb/s:1965.86
General
Unique ID : 210499533704547197163632221988882945873 (0x9E5CBC4B4EEE0BA091ADF7C6C35B1751)
Complete name : Risen (2016).mkv
Format : Matroska
Format version : Version 4 / Version 2
File size : 2.25 GiB
Duration : 1h 47mn
Overall bit rate : 2 993 Kbps
Movie name : Risen / Восставший / Воскресший (2016)
Encoded date : UTC 2016-07-06 11:05:07
Writing application : mkvmerge v8.1.0 ('Psychedelic Postcard') 64bit
Writing library : libebml v1.3.1 + libmatroska v1.4.2
Cover : Yes
Attachments : cover.jpg
Video
ID : 1
Format : AVC
Format/Info : Advanced Video Codec
Format profile : High@L4.1
Format settings, CABAC : Yes
Format settings, ReFrames : 11 frames
Codec ID : V_MPEG4/ISO/AVC
Duration : 1h 47mn
Bit rate : 1 966 Kbps
Width : 1 152 pixels
Height : 480 pixels
Display aspect ratio : 2.40:1
Frame rate mode : Constant
Frame rate : 23.976 (24000/1001) fps
Color space : YUV
Chroma subsampling : 4:2:0
Bit depth : 8 bits
Scan type : Progressive
Bits/(Pixel*Frame) : 0.148
Stream size : 1.48 GiB (66%)
Title : Risen (2016) By optik.1557
Writing library : x264 core 148 r2705kMod 3f5ed56
Encoding settings : cabac=1 / ref=11 / deblock=1:-2:-1 / analyse=0x3:0x133 / me=umh / subme=10 / psy=1 / fade_compensate=0.00 / psy_rd=1.03:0.05 / mixed_ref=1 / me_range=32 / chroma_me=1 / trellis=2 / 8x8dct=1 / cqm=0 / deadzone=21,11 / fast_pskip=0 / chroma_qp_offset=-3 / threads=6 / lookahead_threads=1 / sliced_threads=0 / nr=0 / decimate=1 / interlaced=0 / bluray_compat=0 / constrained_intra=0 / fgo=0 / bframes=14 / b_pyramid=2 / b_adapt=2 / b_bias=0 / direct=1 / weightb=1 / open_gop=0 / weightp=2 / keyint=250 / keyint_min=23 / scenecut=40 / intra_refresh=0 / rc_lookahead=60 / rc=crf / mbtree=0 / crf=17.9000 / qcomp=0.60 / qpmin=0 / qpmax=69 / qpstep=4 / vbv_maxrate=50000 / vbv_bufsize=62500 / crf_max=0.0 / nal_hrd=none / filler=0 / ip_ratio=1.40 / pb_ratio=1.30 / aq=2:0.90
Language : English
Default : Yes
Forced : No
Audio #1
ID : 2
Format : AC-3
Format/Info : Audio Coding 3
Mode extension : CM (complete main)
Format settings, Endianness : Big
Codec ID : A_AC3
Duration : 1h 47mn
Bit rate mode : Constant
Bit rate : 384 Kbps
Channel(s) : 6 channels
Channel positions : Front: L C R, Side: L R, LFE
Sampling rate : 48.0 KHz
Frame rate : 31.250 fps (1536 spf)
Compression mode : Lossy
Stream size : 296 MiB (13%)
Title : MVO. iTunes
Language : Russian
Default : Yes
Forced : No
Audio #2
ID : 3
Format : AC-3
Format/Info : Audio Coding 3
Mode extension : CM (complete main)
Format settings, Endianness : Big
Codec ID : A_AC3
Duration : 1h 47mn
Bit rate mode : Constant
Bit rate : 192 Kbps
Channel(s) : 2 channels
Channel positions : Front: L R
Sampling rate : 48.0 KHz
Frame rate : 31.250 fps (1536 spf)
Compression mode : Lossy
Stream size : 148 MiB (6%)
Title : Дубляж. iTunes
Language : Ukrainian
Default : No
Forced : No
Audio #3
ID : 4
Format : AC-3
Format/Info : Audio Coding 3
Mode extension : CM (complete main)
Format settings, Endianness : Big
Codec ID : A_AC3
Duration : 1h 47mn
Bit rate mode : Constant
Bit rate : 448 Kbps
Channel(s) : 6 channels
Channel positions : Front: L C R, Side: L R, LFE
Sampling rate : 48.0 KHz
Frame rate : 31.250 fps (1536 spf)
Compression mode : Lossy
Stream size : 345 MiB (15%)
Title : Original
Language : English
Default : No
Forced : No
Text #1
ID : 5
Format : UTF-8
Codec ID : S_TEXT/UTF8
Codec ID/Info : UTF-8 Plain Text
Duration : 1h 40mn
Bit rate : 60 bps
Count of elements : 903
Stream size : 44.6 KiB (0%)
Language : Russian
Default : No
Forced : No
Text #2
ID : 6
Format : UTF-8
Codec ID : S_TEXT/UTF8
Codec ID/Info : UTF-8 Plain Text
Duration : 1h 36mn
Bit rate : 37 bps
Count of elements : 988
Stream size : 26.4 KiB (0%)
Language : English
Default : No
Forced : No
Text #3
ID : 7
Format : UTF-8
Codec ID : S_TEXT/UTF8
Codec ID/Info : UTF-8 Plain Text
Duration : 1h 38mn
Bit rate : 44 bps
Count of elements : 1237
Stream size : 31.9 KiB (0%)
Title : SDH
Language : English
Default : No
Forced : No
Menu
00:00:00.000 : en:Chapter 01
00:06:50.034 : en:Chapter 02
00:14:18.732 : en:Chapter 03
00:21:47.889 : en:Chapter 04
00:27:34.903 : en:Chapter 05
00:33:21.082 : en:Chapter 06
00:40:03.609 : en:Chapter 07
00:46:19.193 : en:Chapter 08
00:54:06.243 : en:Chapter 09
01:00:06.185 : en:Chapter 10
01:07:53.027 : en:Chapter 11
01:13:54.847 : en:Chapter 12
01:19:46.364 : en:Chapter 13
01:25:42.387 : en:Chapter 14
01:33:16.132 : en:Chapter 15
01:38:41.832 : en:Chapter 16
[Profile]  [PM] 
Display posts:    
Reply to topic

Current time is: 21-Sep 04:13

All times are UTC + 2



You cannot post new topics in this forum
You cannot reply to topics in this forum
You cannot edit your posts in this forum
You cannot delete your posts in this forum
You cannot vote in polls in this forum
You cannot attach files in this forum
You cannot download files in this forum