Любовь не по размеру / Un homme à la hauteur (Лоран Тирар / Laurent Tirard) [2016, Франция, комедия, WEB-DLRip] Dub (iTunes)

Reply to topic
 
Author
Message

Satyr ®

Gender: Unknown

Longevity: 11 years

Posts: 15401

Reputation: 55 [+] [-]

Satyr · Post 11-Sep-2016 01:23

[Quote] 

Любовь не по размеру / Un homme à la hauteur
Страна: Франция
Жанр: комедия
Год выпуска: 2016
Продолжительность: 01:34:00
Перевод: Профессиональный (дублированный) iTunes
Cубтитры: нет
Режиссер: Лоран Тирар / Laurent Tirard
В ролях: Жан Дюжарден, Виржини Эфира, Седрик Кан, Стефани Папаниан, Сезар Домбой, Эдмон Франчи, Мануэлль Гайар, Бруно Гомила, Камилль Дамур, Франсуа-Доминик Блен
Описание: Потерянный мобильник оборачивается для Дианы знакомством с поистине невероятным человеком по имени Александр. Он умен, неутомим и чертовски обаятелен. У него замечательное чувство юмора и, кажется, нет недостатков. Кроме одного… Его рост — чуть больше метра. Это небольшое препятствие оказывается источником огромных проблем и множества неудобных и смешных ситуаций для Дианы. Но настоящая любовь может победить всё, если, конечно, это очень большая любовь.
Сэмпл: http://multi-up.com/1108437
Качество видео: WEB-DLRip
Формат видео: AVI
Видео: 688x288 (2.39:1), 25 fps, XviD build 73 ~975 kbps avg, 0.22 bit/pixel
Аудио: MP3, 48.0 KHz, 2 ch, 128 kbps

MediaInfo

GeneralComplete name               : D:\downl\Un.homme.à.la.hauteur.2016.WEB-DLRip.745MB.aviFormat                      : AVIFormat/Info                 : Audio Video InterleaveFile size                   : 746 MiBDuration                    : 1h 34mnOverall bit rate            : 1 109 Kbps
VideoID : 0Format : MPEG-4 VisualFormat profile : Advanced Simple@L5Format settings, BVOP : 1Format settings, QPel : NoFormat settings, GMC : No warppointsFormat settings, Matrix : CustomCodec ID : XVIDCodec ID/Hint : XviDDuration : 1h 34mnBit rate : 975 KbpsWidth : 688 pixelsHeight : 288 pixelsDisplay aspect ratio : 2.40:1Frame rate : 25.000 fpsColor space : YUVChroma subsampling : 4:2:0Bit depth : 8 bitsScan type : ProgressiveCompression mode : LossyBits/(Pixel*Frame) : 0.197Stream size : 655 MiB (88%)Writing library : XviD 73
AudioID : 1Format : MPEG AudioFormat version : Version 1Format profile : Layer 3Mode : Joint stereoCodec ID : 55Codec ID/Hint : MP3Duration : 1h 34mnBit rate mode : ConstantBit rate : 128 KbpsChannel(s) : 2 channelsSampling rate : 48.0 KHzCompression mode : LossyStream size : 86.1 MiB (12%)Alignment : Aligned on interleavesInterleave, duration : 160 ms (4.00 video frames)Interleave, preload duratio : 216 msTitle : iTunesWriting library : LAME3.99rEncoding settings : -m j -V 4 -q 2 -lowpass 17 -b 128

Скриншоты

[Profile]  [PM] 
Display posts:    
Reply to topic

Current time is: 24-Jan 07:11

All times are UTC + 2



You cannot post new topics in this forum
You cannot reply to topics in this forum
You cannot edit your posts in this forum
You cannot delete your posts in this forum
You cannot vote in polls in this forum
You cannot attach files in this forum
You cannot download files in this forum