Дивергент, глава 3: За стеной / Allegiant (Роберт Швентке / Robert Schwentke) [2016, США, фантастика, боевик, триллер, BDRip-AVC] Dub + Sub (eng)

Reply to topic
 
Author
Message

Satyr ®

Gender: Unknown

Longevity: 11 years

Posts: 15401

Reputation: 55 [+] [-]

Satyr · Post 11-Sep-2016 01:23

[Quote] 

Дивергент, глава 3: За стеной / Allegiant«Break the boundaries of your world»- Страна: США
Жанр: фантастика, боевик, триллер, детектив, приключения
Год выпуска: 2016
Продолжительность: 02:00:33
Перевод: Профессиональный (полное дублирование)
Субтитры: английские (полные)
Навигация по главам: есть
Режиссер: Роберт Швентке / Robert Schwentke
В ролях: Шейлин Вудли, Тео Джеймс, Энсел Элгорт, Зои Кравиц, Майлз Теллер, Джефф Дэниелс, Наоми Уоттс, Мэгги Кью, Билл Скарсгард, Кейнан Лонсдейл, Надиа Хилкер, Октавия Спенсер, Дэниэл Дэ Ким, Джонни Уэстон, Энди Бин, Рэй Стивенсон, Мекхай Файфер, Джозеф Дэвид-Джонс, Эшли Джадд, Джош Давендек-Описание: Трис и Фор впервые покидают город и своих близких и оказываются в опасном мире за стеной, отделяющей Чикаго, где им открывается шокирующая правда.
Они должны быстро разобраться, кому можно доверять, так как битва, разгорающаяся за стенами города, угрожает всему человечеству. Чтобы выжить, Трис придется сделать непростой выбор между мужеством, верностью, любовью и необходимостью идти на жертвы.- -Качество: BDRip-AVC (исходник - BDRemux|ALLEGIANT_REMUX_HDCLUB)
Формат видео: MKV
Видео: x264, 1008x420 (2.40:1), 23,976 fps, ~2131 kbps, 0.210 bit/pixel
Аудио: 48 kHz, AC3 Dolby Digital, 3/2 (L,C,R,l,r) + LFE ch, ~448 kbps
Формат субтитров: softsub (SRT)-

MediaInfo | x264 log

Format : Matroska
Format version : Version 4 / Version 2
File size : 2.17 GiB
Duration : 2h 0mn
Overall bit rate : 2 580 Kbps
Movie name : Дивергент, глава 3: За стеной / Allegiant (2016) :: AFM ::
Encoded date : UTC 2016-07-03 08:38:48
Writing application : mkvmerge v8.3.0 ('Over the Horizon') 32bit
Writing library : libebml v1.3.1 + libmatroska v1.4.2
Video
ID : 1
Format : AVC
Format/Info : Advanced Video Codec
Format profile : High@L4.1
Format settings, CABAC : Yes
Format settings, ReFrames : 12 frames
Codec ID : V_MPEG4/ISO/AVC
Duration : 2h 0mn
Bit rate : 2 131 Kbps
Width : 1 008 pixels
Height : 420 pixels
Display aspect ratio : 2.40:1
Frame rate mode : Constant
Frame rate : 23.976 fps
Color space : YUV
Chroma subsampling : 4:2:0
Bit depth : 8 bits
Scan type : Progressive
Bits/(Pixel*Frame) : 0.210
Stream size : 1.75 GiB (81%)
Title : BDRip by AFM [torrentsland.com.ua]
Writing library : x264 core 148 r2705+54 9f484c1 t_mod_Custom [8-bit@all X86_64]
Encoding settings : cabac=1 / ref=12 / deblock=1:-2:-2 / analyse=0x3:0x113 / me=umh / subme=10 / psy=1 / fade_compensate=0.00 / psy_rd=1.00:0.00 / mixed_ref=1 / me_range=32 / chroma_me=1 / trellis=2 / 8x8dct=1 / cqm=0 / deadzone=21,11 / fast_pskip=0 / chroma_qp_offset=-2 / threads=6 / lookahead_threads=1 / sliced_threads=0 / nr=0 / decimate=0 / interlaced=0 / bluray_compat=0 / constrained_intra=0 / fgo=0 / bframes=13 / b_pyramid=2 / b_adapt=2 / b_bias=0 / direct=3 / weightb=1 / open_gop=0 / weightp=2 / keyint=250 / keyint_min=23 / scenecut=40 / intra_refresh=0 / rc_lookahead=40 / rc=2pass / mbtree=0 / bitrate=2131 / ratetol=1.0 / qcomp=0.65 / qpmin=0:0:0 / qpmax=69:69:69 / qpstep=4 / cplxblur=20.0 / qblur=0.5 / vbv_maxrate=50000 / vbv_bufsize=62500 / nal_hrd=none / filler=0 / ip_ratio=1.24 / pb_ratio=1.21 / aq=1:0.80 / aq-sensitivity=10.00 / aq-factor=1.00:1.00:1.00 / aq2=0 / aq3=0
Language : English
Default : Yes
Forced : No
Audio
ID : 2
Format : AC-3
Format/Info : Audio Coding 3
Mode extension : CM (complete main)
Format settings, Endianness : Big
Codec ID : A_AC3
Duration : 2h 0mn
Bit rate mode : Constant
Bit rate : 448 Kbps
Channel(s) : 6 channels
Channel positions : Front: L C R, Side: L R, LFE
Sampling rate : 48.0 KHz
Compression mode : Lossy
Stream size : 386 MiB (17%)
Title : Dub, AC3 5.1 ~448 kbps
Language : Russian
Default : Yes
Forced : No
Text
ID : 3
Format : UTF-8
Codec ID : S_TEXT/UTF8
Codec ID/Info : UTF-8 Plain Text
Language : English
Default : No
Forced : No
Menu
00:00:00.000 : Chapter 1
00:09:46.335 : Chapter 2
00:16:54.302 : Chapter 3
00:25:52.092 : Chapter 4
00:32:45.211 : Chapter 5
00:37:26.202 : Chapter 6
00:45:49.538 : Chapter 7
00:53:31.458 : Chapter 8
00:58:18.244 : Chapter 9
01:07:21.161 : Chapter 10
01:13:46.712 : Chapter 11
01:19:51.036 : Chapter 12
01:26:40.234 : Chapter 13
01:33:12.127 : Chapter 14
01:40:24.059 : Chapter 15
01:46:18.872 : Chapter 16
02:00:32.975 : Chapter 17

x264

x264 [info]: frame I:1334 Avg QP:15.47 size: 69530
x264 [info]: frame P:47451 Avg QP:18.40 size: 21137
x264 [info]: frame B:124639 Avg QP:19.77 size: 6664
x264 [info]: consecutive B-frames: 4.9% 10.3% 10.9% 24.0% 17.7% 22.6% 4.6% 1.9% 1.1% 0.7% 0.4% 0.3% 0.3% 0.3%
x264 [info]: mb I I16..4: 6.1% 66.3% 27.7%
x264 [info]: mb P I16..4: 1.0% 7.4% 2.5% P16..4: 36.6% 26.9% 15.9% 0.0% 0.0% skip: 9.6%
x264 [info]: mb B I16..4: 0.1% 0.6% 0.4% B16..8: 36.6% 12.9% 4.1% direct: 5.1% skip:40.2% L0:40.6% L1:41.6% BI:17.8%
x264 [info]: 8x8 transform intra:65.8% inter:55.4%
x264 [info]: direct mvs spatial:93.1% temporal:6.9%
x264 [info]: coded y,uvDC,uvAC intra: 79.5% 82.5% 64.8% inter: 23.3% 21.4% 12.4%
x264 [info]: i16 v,h,dc,p: 36% 18% 7% 40%
x264 [info]: i8 v,h,dc,ddl,ddr,vr,hd,vl,hu: 17% 10% 9% 8% 11% 12% 11% 10% 12%
x264 [info]: i4 v,h,dc,ddl,ddr,vr,hd,vl,hu: 36% 7% 5% 7% 10% 10% 9% 8% 9%
x264 [info]: i8c dc,h,v,p: 38% 25% 22% 15%
x264 [info]: Weighted P-Frames: Y:3.3% UV:1.6%
x264 [info]: ref P L0: 54.6% 12.3% 12.7% 5.7% 4.2% 2.7% 2.3% 1.4% 1.2% 1.0% 0.9% 0.9% 0.1% 0.0%
x264 [info]: ref B L0: 75.9% 10.4% 5.2% 2.4% 1.8% 1.4% 1.1% 0.7% 0.6% 0.4% 0.2%
x264 [info]: ref B L1: 94.8% 5.2%
x264 [info]: kb/s:2130.57

Скриншоты

с названием

03.07.2016 торрент перезалит - замена WEB-DLRip -> BDRip
[Profile]  [PM] 
Display posts:    
Reply to topic

Current time is: 01-Oct 06:26

All times are UTC + 2



You cannot post new topics in this forum
You cannot reply to topics in this forum
You cannot edit your posts in this forum
You cannot delete your posts in this forum
You cannot vote in polls in this forum
You cannot attach files in this forum
You cannot download files in this forum