Моя большая греческая свадьба 2 / My Big Fat Greek Wedding 2 (Кирк Джонс / Kirk Jones) [2016, США, Канада, мелодрама, комедия, BDRip] MVO (Parovoz Production)

Reply to topic
 
Author
Message

Satyr ®

Gender: Unknown

Longevity: 11 years

Posts: 15401

Reputation: 55 [+] [-]

Satyr · Post 11-Sep-2016 01:24

[Quote] 

Моя большая греческая свадьба 2 / My Big Fat Greek Wedding 2
Страна: США, Канада
Жанр: мелодрама, комедия
Год выпуска: 2016
Продолжительность: 01:33:52
Перевод: Любительский (многоголосый закадровый) Parovoz Production
Cубтитры: нет
Оригинальная аудиодорожка: нет
Режиссер: Кирк Джонс / Kirk Jones
В ролях: Ниа Вардалос, Джон Корбетт, Майкл Константин, Лэйни Казан, Андреа Мартин, Джиа Каридес, Джои Фатоне, Елена Кампурис
Описание: История Тулы Портокалос-Миллер продолжается. Туристическая фирма, в которой она работала, закрылась, как и семейный бизнес по химчистке. Теперь Тула работает в семейном ресторане. Ее дочери Пэрис надоело, что семья постоянно давит на нее, поэтому она решает поступить в колледж в другом городе, что расстраивает всех членов семейства. Вскоре после этого родители Тулы узнают, что технически они все еще не женаты. Так что Портокалосы готовятся к новой крупной свадьбе, которая привнесет сумятицу в жизнь каждого из них.
Сэмпл: http://multi-up.com/1107898
Качество видео: BDRip / [My.Big.Fat.Greek.Wedding2.2016.BDREMUX.1080p.ExKinoRay]
Формат видео: AVI
Видео: 720x304 (2.37:1), 23.976 fps, XviD build 65 ~2007 kbps avg, 0.38 bit/pixel
Audio: 48 kHz, AC3 Dolby Digital, 2/0 (L,R) ch, ~192 kbps
Rip by Ториял для

MediaInfo

General
Complete name : D:\Фильмы\My Big Fat Greek Wedding 2_2016_Toriyal_Rutracker.avi
Format : AVI
Format/Info : Audio Video Interleave
File size : 1.45 GiB
Duration : 1h 33mn
Overall bit rate : 2 209 Kbps
Writing application : VirtualDubMod 1.5.10.3 | www.virtualdub-fr.org || (build 2550/release)
Writing library : VirtualDubMod build 2550/release
Video
ID : 0
Format : MPEG-4 Visual
Format profile : Advanced Simple@L5
Format settings, BVOP : 1
Format settings, QPel : No
Format settings, GMC : No warppoints
Format settings, Matrix : Custom
Codec ID : XVID
Codec ID/Hint : XviD
Duration : 1h 33mn
Bit rate : 2 008 Kbps
Width : 720 pixels
Height : 304 pixels
Display aspect ratio : 2.35:1
Frame rate : 23.976 (23976/1000) fps
Color space : YUV
Chroma subsampling : 4:2:0
Bit depth : 8 bits
Scan type : Progressive
Compression mode : Lossy
Bits/(Pixel*Frame) : 0.383
Stream size : 1.32 GiB (91%)
Writing library : XviD 65
Audio
ID : 1
Format : AC-3
Format/Info : Audio Coding 3
Mode extension : CM (complete main)
Format settings, Endianness : Big
Codec ID : 2000
Duration : 1h 33mn
Bit rate mode : Constant
Bit rate : 192 Kbps
Channel(s) : 2 channels
Channel positions : Front: L R
Sampling rate : 48.0 KHz
Frame rate : 31.250 fps (1536 spf)
Compression mode : Lossy
Stream size : 129 MiB (9%)
Alignment : Split accross interleaves
Interleave, duration : 42 ms (1.00 video frame)
Interleave, preload duratio : 500 ms

Скриншоты

[Profile]  [PM] 
Display posts:    
Reply to topic

Current time is: 24-Sep 23:47

All times are UTC + 2



You cannot post new topics in this forum
You cannot reply to topics in this forum
You cannot edit your posts in this forum
You cannot delete your posts in this forum
You cannot vote in polls in this forum
You cannot attach files in this forum
You cannot download files in this forum