Рекомендации по уходу / Основные принципы добра / The fundamentals of caring (Роб Барнетт / Rob Burnett) [2016, США, Комедия, мелодрама, DVDRip] VO (Cmert) + Original Eng

Reply to topic
 
Author
Message

Satyr ®

Gender: Unknown

Longevity: 11 years

Posts: 15401

Reputation: 55 [+] [-]

Satyr · Post 11-Sep-2016 01:24

[Quote] 

Рекомендации по уходу / Основные принципы добра / The fundamentals of caring
Страна: США
Жанр: Комедия, мелодрама
Год выпуска: 2016
Продолжительность: 01:33:27
Перевод: Одноголосый закадровый Cmert по субтитрам М.Васильев
Cубтитры: нет
Оригинальная аудиодорожка: английский
Режиссер: Роб Барнетт / Rob Burnett
В ролях: Крэйг Робертс, Пол Радд, Селена Гомес, Дженнифер Или, Меган Фергюсон
Описание: Писатель, переживающий творческий и личностный кризис, устраивается работать сиделкой к юноше с редким генетическим заболеванием (которое, про должном уходе, не мешает ему вести вполне полноценную жизнь). Сначала они ненавидят друг друга, потом находят общий язык. А в итоге становятся лучшими друзьями и отправляются в путешествие по стране. В пути к ним присоединяется сбежавшая из дома девица. Для каждого эта поездка станет шагом на пути к познанию самого себя...
Сэмпл: http://multi-up.com/1107768
Качество видео: DVDRip
Формат видео: AVI
Видео: 720x304 (2.37:1), 23.976 fps, XviD build 66 ~1556 kbps avg, 0.30 bit/pixel
Аудио: 44.100 kHz, MPEG Layer 3, 2 ch, ~128.00 kbps avg
Аудио 2: 48 kHz, AC3 Dolby Digital, 3/2 (L,C,R,l,r) + LFE ch, ~384 kbps

MediaInfo

Format : AVI
Format/Info : Audio Video Interleave
File size : 1.36 GiB
Duration : 1h 33mn
Overall bit rate : 2 083 Kbps
Writing application : VirtualDubMod 1.5.10.2 (build 2540/release)
Writing library : VirtualDubMod build 2540/release
Video
ID : 0
Format : MPEG-4 Visual
Format profile : Advanced Simple@L5
Format settings, BVOP : 2
Format settings, QPel : No
Format settings, GMC : No warppoints
Format settings, Matrix : Default (H.263)
Codec ID : XVID
Codec ID/Hint : XviD
Duration : 1h 33mn
Bit rate : 1 557 Kbps
Width : 720 pixels
Height : 304 pixels
Display aspect ratio : 2.35:1
Frame rate : 23.976 fps
Color space : YUV
Chroma subsampling : 4:2:0
Bit depth : 8 bits
Scan type : Progressive
Compression mode : Lossy
Bits/(Pixel*Frame) : 0.297
Stream size : 1.02 GiB (75%)
Writing library : XviD 66
Audio #1
ID : 1
Format : MPEG Audio
Format version : Version 1
Format profile : Layer 3
Mode : Joint stereo
Mode extension : MS Stereo
Codec ID : 55
Codec ID/Hint : MP3
Duration : 1h 33mn
Bit rate mode : Constant
Bit rate : 128 Kbps
Channel(s) : 2 channels
Sampling rate : 44.1 KHz
Compression mode : Lossy
Stream size : 85.6 MiB (6%)
Alignment : Split accross interleaves
Interleave, duration : 42 ms (1.00 video frame)
Interleave, preload duratio : 500 ms
Audio #2
ID : 2
Format : AC-3
Format/Info : Audio Coding 3
Mode extension : CM (complete main)
Format settings, Endianness : Big
Codec ID : 2000
Duration : 1h 33mn
Bit rate mode : Constant
Bit rate : 384 Kbps
Channel(s) : 6 channels
Channel positions : Front: L C R, Side: L R, LFE
Sampling rate : 48.0 KHz
Bit depth : 16 bits
Compression mode : Lossy
Stream size : 257 MiB (18%)
Alignment : Aligned on interleaves
Interleave, duration : 42 ms (1.00 video frame)
Interleave, preload duratio : 512 ms

Скриншот c названием фильма

Скриншоты

[Profile]  [PM] 
Display posts:    
Reply to topic

Current time is: 01-Oct 07:05

All times are UTC + 2



You cannot post new topics in this forum
You cannot reply to topics in this forum
You cannot edit your posts in this forum
You cannot delete your posts in this forum
You cannot vote in polls in this forum
You cannot attach files in this forum
You cannot download files in this forum