Тишина / Hush (Майк Флэнаган / Mike Flanagan) [2016, США, триллер, ужасы, HDRip] VO (datynet) + Original Eng

Reply to topic
 
Author
Message

Satyr ®

Gender: Unknown

Longevity: 11 years

Posts: 15401

Reputation: 55 [+] [-]

Satyr · Post 11-Sep-2016 01:24

[Quote] 

Тишина / Hush
Страна: США
Жанр: триллер, ужасы
Год выпуска: 2016
Продолжительность: 01:21:32
Перевод: Одноголосый закадровый datynet
Cубтитры: нет
Оригинальная аудиодорожка: английский
Режиссер: Майк Флэнаган / Mike Flanagan
В ролях: Джон Галлахер мл., Кейт Сигел, Майкл Трукко, Саманта Слойан, Эмилия Грейвз
Описание: Молодая писательница Мэдди Янг вынуждена жить в мире вечной тишины после того, как в подростковом возрасте лишилась слуха. Она поселилась в уединённом домике в глубине лесной чащи, где на мили вокруг нет ни единой души и живёт там в полном одиночестве и гармонии с собой. Безопасную тишину нарушает проникший поздно вечером через окно психопат в маске, выбравший Мэдди в качестве своей очередной жертвы и решивший поиграть с беззащитной девушкой в кошки-мышки.
Сэмпл: http://multi-up.com/1107598
Качество видео: HDRip (исходник не известен)
Формат видео: AVI
Видео: Xvid 720x304 25fps 2 139 Kbps
Аудио: MP3 48000Hz stereo 192kbps
Аудио 2: Dolby AC3 48000Hz stereo 192kbps

MediaInfo

Format : AVI
Format/Info : Audio Video Interleave
File size : 1.45 GiB
Duration : 1h 21mn
Overall bit rate : 2 537 Kbps
Writing application : VirtualDubModRus 1.5.10.2 (build 2542/release)
Writing library : VirtualDubMod build 2542/release
Video
ID : 0
Format : MPEG-4 Visual
Format profile : Advanced Simple@L5
Format settings, BVOP : Yes
Format settings, QPel : No
Format settings, GMC : No warppoints
Format settings, Matrix : Default (H.263)
Codec ID : XVID
Codec ID/Hint : XviD
Duration : 1h 21mn
Bit rate : 2 139 Kbps
Width : 720 pixels
Height : 304 pixels
Display aspect ratio : 2.35:1
Frame rate : 25.000 fps
Color space : YUV
Chroma subsampling : 4:2:0
Bit depth : 8 bits
Scan type : Progressive
Compression mode : Lossy
Bits/(Pixel*Frame) : 0.391
Stream size : 1.22 GiB (84%)
Writing library : XviD 66
Audio #1
ID : 1
Format : MPEG Audio
Format version : Version 1
Format profile : Layer 3
Codec ID : 55
Codec ID/Hint : MP3
Duration : 1h 21mn
Bit rate mode : Constant
Bit rate : 192 Kbps
Channel count : 2 channels
Sampling rate : 48.0 KHz
Compression mode : Lossy
Stream size : 112 MiB (8%)
Alignment : Split accross interleaves
Interleave, duration : 40 ms (1.00 video frame)
Interleave, preload duration : 500 ms
Audio #2
ID : 2
Format : AC-3
Format/Info : Audio Coding 3
Mode extension : CM (complete main)
Format settings, Endianness : Big
Codec ID : 2000
Duration : 1h 21mn
Bit rate mode : Constant
Bit rate : 192 Kbps
Channel count : 2 channels
Channel positions : Front: L R
Sampling rate : 48.0 KHz
Bit depth : 16 bits
Compression mode : Lossy
Stream size : 112 MiB (8%)
Alignment : Split accross interleaves
Interleave, duration : 40 ms (1.00 video frame)
Interleave, preload duration : 500 ms

Скриншот c названием фильма

Скриншоты

[Profile]  [PM] 
Display posts:    
Reply to topic

Current time is: 19-Sep 11:31

All times are UTC + 2



You cannot post new topics in this forum
You cannot reply to topics in this forum
You cannot edit your posts in this forum
You cannot delete your posts in this forum
You cannot vote in polls in this forum
You cannot attach files in this forum
You cannot download files in this forum